[Login] or [Signup]
Login
Username:
Password:
[Signup]
[Recover Account]


Poll


You must be logged in to view polls



Torrent Details For "Zakhmi 2018 S01 x264 720p HD Hindi GOPISAHI"

Zakhmi 2018 S01 x264 720p HD Hindi GOPISAHI

Download this torrent | Magnet Download
Health:
Seeds: 514
Leechers: 334
Completed: 2,852 
Last Checked: 14-07-2018 06:11:57
External Torrent
Update Stats
Download Magnet


Poster
No poster


Watch-Free-HD     Download

Details
Name:Zakhmi 2018 S01 x264 720p HD Hindi GOPISAHI
Description:
 http://www.gopisahi.pw/

Format                         : Matroska
Format version                 : Version 4 / Version 2
File size                      : 999 MiB
Duration                       : 4 h 8 min
Overall bit rate               : 563 kb/s
Movie name                     :  Zakhmi 2018 S01 GOPISAHI


Video
Format                         : AVC
Format/Info                    : Advanced Video Codec
Codec ID                       : V_MPEG4/ISO/AVC
Duration                       : 4 h 8 min
Bit rate                       : 499 kb/s
Width                          : 1 280 pixels
Height                         : 412 pixels
Display aspect ratio           : 2.35:1
Frame rate mode                : Constant
Frame rate                     : 25.000 FPS
Color space                    : YUV
Chroma subsampling             : 4:2:0
Bit depth                      : 8 bits
Scan type                      : Progressive
Bits/(Pixel*Frame)             : 0.038
Stream size                    : 886 MiB (89%)
Title                          : GOPISAHI
Writing library                : x264 core 155 r2901 7d0ff22

Audio
Format                         : AAC
Duration                       : 4 h 8 min
Bit rate                       : 61.5 kb/s
Channel(s)                     : 2 channels
Channel positions              : Front: L R
Sampling rate                  : 48.0 kHz
Frame rate                     : 46.875 FPS (1024 SPF)
Compression mode               : Lossy
Delay relative to video        : -21 ms
Stream size                    : 109 MiB (11%)
Title                          : GOPISAHI
Language                       : Hindi


Category:Movies > Bollywood
Lang:Hindi
Total Size:998.96 MB
Info Hash:328133dd326f805db496d751131e03a4cf9138d1
Added By:gopisahi
Date Added:12-07-2018 10:12:45
Views:1,695
Hits:220

Download Torrent

Ratings:Not Yet Rated (Log in to rate it)


Tracker:
udp://9.rarbg.com:2740/announce


File List: 


Comments

No comments still posted

Powered by 10 Hamsters v2-svn -|- Page Generated In 0.239110 secs.
-|- RSS FEED
Theme By: Nikkbu