[Login] or [Signup]
Login
Username:
Password:
[Signup]
[Recover Account]


Poll


You must be logged in to view polls



Torrent Details For "Bridget Jones's Baby 2016 x264 720p Esub BluRay Dual Audio English Hindi GOPISAHI"

Bridget Jones's Baby 2016 x264 720p Esub BluRay Dual Audio English Hindi GOPISAHI

Download this torrent | Magnet Download
Health:
Seeds: 0
Leechers: 0
Completed:
Last Checked: 11-07-2018 12:25:25
External Torrent
Update Stats
Download Magnet


Poster
No poster


Watch-Free-HD     Download

Details
Name:Bridget Jones's Baby 2016 x264 720p Esub BluRay Dual Audio English Hindi GOPISAHI
Description:
 http://www.gopisahi.pw/

Format                         : Matroska

Format version                 : Version 4 / Version 2

File size                      : 697 MiB

Duration                       : 2 h 2 min

Overall bit rate               : 794 kb/s

Movie name                     : Bridget Jones's Baby 2016 GOPISAHI


Video

Format                         : AVC

Codec ID                       : V_MPEG4/ISO/AVC

Duration                       : 2 h 2 min

Bit rate                       : 599 kb/s

Width                          : 1 280 pixels

Height                         : 534 pixels

Display aspect ratio           : 2.40:1

Original display aspect ratio  : 2.40:1

Frame rate mode                : Constant

Frame rate                     : 23.976 (24000/1001) FPS

Color space                    : YUV

Chroma subsampling             : 4:2:0

Bit depth                      : 8 bits

Scan type                      : Progressive

Bits/(Pixel*Frame)             : 0.037

Stream size                    : 525 MiB (75%)

Title                          : GOPISAHI

Writing library                : x264 core 155 r2901 7d0ff22

Language                       : English


Audio #1

Format                         : AAC

Duration                       : 2 h 2 min

Bit rate                       : 96.0 kb/s

Channel(s)                     : 2 channels

Channel positions              : Front: L R

Sampling rate                  : 48.0 kHz

Frame rate                     : 46.875 FPS (1024 SPF)

Compression mode               : Lossy

Delay relative to video        : -64 ms

Stream size                    : 84.5 MiB (12%)

Title                          : GOPISAHI

Language                       : English


Audio #2

Format                         : AAC

Duration                       : 2 h 2 min

Bit rate                       : 96.0 kb/s

Channel(s)                     : 2 channels

Channel positions              : Front: L R

Sampling rate                  : 48.0 kHz

Frame rate                     : 46.875 FPS (1024 SPF)

Compression mode               : Lossy

Delay relative to video        : -64 ms

Stream size                    : 84.4 MiB (12%)

Title                          : GOPISAHI

Language                       : Hindi


Text

Language                       : English


Category:Movies > Hollywood Dub
Lang:Hindi
Total Size:696.74 MB
Info Hash:9e8e554f2b7707596fcbfca1594f95fc42f5e381
Added By:gopisahi
Date Added:11-07-2018 12:25:25
Views:746
Hits:31

Download Torrent

Ratings:Not Yet Rated (Log in to rate it)


Tracker:
udp://9.rarbg.com:2740/announce


File List: 


Comments

No comments still posted

Powered by 10 Hamsters v2-svn -|- Page Generated In 0.269659 secs.
-|- RSS FEED
Theme By: Nikkbu