[Login] or [Signup]
Login
Username:
Password:
[Signup]
[Recover Account]


Poll


You must be logged in to view polls



Torrent Details For "Game of Thrones 2011 S01 E09 Baelor x264 720p Esub BluRay Dual Audio English Hindi GOPISAHI"

Game of Thrones 2011 S01 E09 Baelor x264 720p Esub BluRay Dual Audio English Hindi GOPISAHI

Download this torrent | Magnet Download
Health:
Seeds: 2
Leechers: 45
Completed: 136 
Last Checked: 14-07-2018 21:44:15
External Torrent
Update Stats
Download Magnet


Poster
No poster


Watch-Free-HD     Download

Details
Name:Game of Thrones 2011 S01 E09 Baelor x264 720p Esub BluRay Dual Audio English Hindi GOPISAHI
Description:
 http://www.gopisahi.pw/

Format                         : Matroska

Format version                 : Version 4 / Version 2

File size                      : 279 MiB

Duration                       : 56 min 16 s

Overall bit rate               : 694 kb/s

Movie name                     : S01E09 GOPISAHI


Video

Format                         : AVC

Codec ID                       : V_MPEG4/ISO/AVC

Duration                       : 56 min 16 s

Bit rate                       : 499 kb/s

Width                          : 1 280 pixels

Height                         : 720 pixels

Display aspect ratio           : 16:9

Frame rate mode                : Constant

Frame rate                     : 23.976 (24000/1001) FPS

Color space                    : YUV

Chroma subsampling             : 4:2:0

Bit depth                      : 8 bits

Scan type                      : Progressive

Bits/(Pixel*Frame)             : 0.023

Stream size                    : 201 MiB (72%)

Title                          : GOPISAHI

Writing library                : x264 core 155 r2901 7d0ff22


Audio #1

Format                         : AAC

Duration                       : 56 min 16 s

Bit rate                       : 96.0 kb/s

Channel(s)                     : 2 channels

Channel positions              : Front: L R

Sampling rate                  : 48.0 kHz

Frame rate                     : 46.875 FPS (1024 SPF)

Compression mode               : Lossy

Delay relative to video        : -21 ms

Stream size                    : 38.7 MiB (14%)

Title                          : GOPISAHI

Language                       : Hindi


Audio #2

Format                         : AAC

Duration                       : 56 min 16 s

Bit rate                       : 96.0 kb/s

Channel(s)                     : 2 channels

Channel positions              : Front: L R

Sampling rate                  : 48.0 kHz

Frame rate                     : 46.875 FPS (1024 SPF)

Compression mode               : Lossy

Delay relative to video        : 31 ms

Stream size                    : 38.8 MiB (14%)

Title                          : GOPISAHI

Language                       : English


Text

Language                       : EnglisH


Category:Movies > Hollywood Dub
Lang:Hindi
Total Size:279.43 MB
Info Hash:f10adcd0138c17402c7be6234b37a9323348fb3b
Added By:Unknown
Date Added:10-07-2018 13:36:00
Views:223
Hits:76

Download Torrent

Ratings:Not Yet Rated (Log in to rate it)


Tracker:
udp://9.rarbg.com:2740/announce


File List: 


Comments

No comments still posted

Powered by 10 Hamsters v2-svn -|- Page Generated In 0.375895 secs.
-|- RSS FEED
Theme By: Nikkbu