[Login] or [Signup]
Login
Username:
Password:
[Signup]
[Recover Account]


Poll


You must be logged in to view polls



Torrent Details For "Khoonkhar (Jaya Janaki Nayaka) (2018) Hindi HDTVRip x264 AAC 1GB [MovCr]"

Khoonkhar (Jaya Janaki Nayaka) (2018) Hindi HDTVRip x264 AAC 1GB [MovCr]

Download this torrent | Magnet Download
Health:
Seeds: 640
Leechers: 602
Completed: 828 
Last Checked: 08-07-2018 14:21:56
External Torrent
Update Stats
Download Magnet


Poster


iMDB
Imdb Picture Title: Jaya Janaki Nayaka
Year: 2017
Runtime: 149 minutes
Votes: 79
Rating: 5.4/10
Language: Telugu
Country: India
All Genres: Action, Romance
Director: Boyapati Srinu
Writing By: M. Rathnam,Boyapati Srinu,Boyapati Srinu,
Produced By: Vivek Kuchibhotla,Miryala Ravinder Reddy,
Music: Devi Sri Prasad
Cast:
Tarun Arora as Arun Pawar
Jagapathi Babu as Ashwadh Narayana Varma
Sai Srinivas Bellamkonda as Gagan
Chalapathi Rao as Satyam
Pragya Jaiswal as Falguni
Sarath Kumar as Chakravarthy
Ocean Navarro as Pink Cheerleader
Shashank as Veerendra Varma
Rakul Preet Singh as Janaki


Watch-Free-HD     Download

Details
Name:Khoonkhar (Jaya Janaki Nayaka) (2018) Hindi HDTVRip x264 AAC 1GB [MovCr]
Description:
Visit Our Site  www.movcr.com

 http://www.imdb.com/title/tt7286562/

 

General
Unique ID                   : 60706998788094038752154417817559540206 (0x2DABBE20468F89221CB4E88F5A20A1EE)
Complete name               : www.MovCr.com - Khoonkhar (Jaya Janaki Nayaka) (2018) Hindi HDTVRip x264 AAC 1GB [MovCr].mkv
Format                      : Matroska
Format version              : Version 4 / Version 2
File size                   : 1 022 MiB
Duration                    : 1 h 59 min
Overall bit rate            : 1 194 kb/s
Movie name                  : www.MovCr.com
Encoded date                : UTC 2018-07-08 05:30:36
Writing application         : mkvmerge v23.0.0 ('The Bride Said No') 64-bit
Writing library             : libebml v1.3.6 + libmatroska v1.4.9 / Lavf57.71.100

Video
ID                          : 1
Format                      : AVC
Format/Info                 : Advanced Video Codec
Format profile              : [email protected]
Format settings, CABAC      : Yes
Format settings, ReFrames   : 4 frames
Codec ID                    : V_MPEG4/ISO/AVC
Duration                    : 1 h 59 min
Bit rate mode               : Constant
Bit rate                    : 1 100 kb/s
Width                       : 720 pixels
Height                      : 576 pixels
Display aspect ratio        : 5:4
Original display aspect rat : 4:3
Frame rate mode             : Constant
Frame rate                  : 25.000 FPS
Standard                    : Component
Color space                 : YUV
Chroma subsampling          : 4:2:0
Bit depth                   : 8 bits
Scan type                   : Progressive
Bits/(Pixel*Frame)          : 0.106
Stream size                 : 940 MiB (92%)
Title                       : www.MovCr.com
Default                     : Yes
Forced                      : No
Color range                 : Limited
Color primaries             : BT.601 PAL
Transfer characteristics    : BT.470 System B, BT.470 System G
Matrix coefficients         : BT.601

Audio
ID                          : 2
Format                      : AAC
Format/Info                 : Advanced Audio Codec
Format profile              : LC
Codec ID                    : A_AAC
Duration                    : 1 h 59 min
Bit rate                    : 93.4 kb/s
Channel(s)                  : 2 channels
Channel positions           : Front: L R
Sampling rate               : 48.0 kHz
Frame rate                  : 46.875 FPS (1024 spf)
Compression mode            : Lossy
Delay relative to video     : -75 ms
Stream size                 : 79.9 MiB (8%)
Title                       : www.MovCr.com
Default                     : Yes
Forced                      : No



 
 
 
 
 
 
 
 
 
 
 
Category:Movies > South Dub
Lang:Hindi
Total Size:1,022.14 MB
Info Hash:03d5dd3a573de11a7458f423e182596cd717084c
Added By:MAZE
Date Added:08-07-2018 06:44:29
Views:980
Hits:131

Download Torrent

Ratings:Not Yet Rated (Log in to rate it)


Tracker:
udp://tracker.coppersurfer.tk:6969/announce


File List: 


Comments

No comments still posted

Powered by 10 Hamsters v2-svn -|- Page Generated In 1.977746 secs.
-|- RSS FEED
Theme By: Nikkbu