[Login] or [Signup]
Login
Username:
Password:
[Signup]
[Recover Account]


Poll


You must be logged in to view polls



Torrent Details For "18+ Sacred Games (2018) S01 Complete Season 1 [Hindi+English] 720p NetFlix x264 DD 5.1 ESubs 5...."

18+ Sacred Games (2018) S01 Complete Season 1 [Hindi+English] 720p NetFlix x264 DD 5.1 ESubs 5....

Download this torrent | Magnet Download
Health:
Seeds: 2,682
Leechers: 1,356
Completed: 35,762 
Last Checked: 15-07-2018 21:45:11
External Torrent
Update Stats
Download Magnet


Poster


iMDB
Imdb Picture Title: Sacred Games
Year: 2018
Language: English, Indian Sign Language
Country: USA, India
All Genres: Crime, Drama
Plot Outline: Based on the critically acclaimed novel, Sacred Games by Vikram Chandra.


Director: Anurag Kashyap
Vikramaditya Motwane
Writing By: Varun Grover,Vasant Nath,Smita Singh,
Produced By: Sada Bhuvad,Arya Menon,Niraj Kumar Pandey,Anna Garduno,Kerry Williamson,
Music: Rachita Arora Alokananda Dasgupta
Cast:
Nawazuddin Siddiqui as Gaitonde 1 episode, 2018
Saif Ali Khan as Sartaj 1 episode, 2018
Elnaaz Norouzi as Zoya Mirza 1 episode, 2018
Anupriya Goenka as Megha 1 episode, 2018
Radhika Apte as 1 episode, 2018
Aamir Bashir as Majid 1 episode, 2018
Rajshri Deshpande as Subhadra 1 episode, 2018
Girish Dixit as Mandar 1 episode, 2018
Neeraj Kabi as Parulkar 1 episode, 2018
Luke Kenny as Malcom Murad 1 episode, 2018
Trailers:
Official Trailer
Teaser Trailer


Watch-Free-HD     Download

Details
Name:18+ Sacred Games (2018) S01 Complete Season 1 [Hindi+English] 720p NetFlix x264 DD 5.1 ESubs 5....
Description:
Visit Our Site  www.movcr.com

Plot :
Based on the critically acclaimed novel, Sacred Games by Vikram Chandra.

Stars: Nawazuddin Siddiqui, Saif Ali Khan, Elnaaz Norouzi

18+ Sacred Games (2018) S01 Complete Season 1 [Hindi+English] 720p NetFlix x264 DD 5.1 ESubs 5.4GB - MovCr


 http://www.imdb.com/title/tt6077448/

 

General
Unique ID                   : 252161313862739596954524097508653800612 (0xBDB480A50C35357AB342798F91221CA4)
Complete name               : 18+ Sacred Games (2018) S01 Complete Season 1 [Hindi+English] 720p NetFlix x264 DD 5.1 ESubs - MovCr\Sacred Games 2018 Hindi+English S01EP05 (Sharma) 720p NetFlix x264 DD 5.1 ESub - MovCr.mkv
Format                      : Matroska
Format version              : Version 4 / Version 2
File size                   : 634 MiB
Duration                    : 45 min 20 s
Overall bit rate            : 1 955 kb/s
Movie name                  : www.MovCr.com
Encoded date                : UTC 2018-07-06 15:45:37
Writing application         : mkvmerge v23.0.0 ('The Bride Said No') 64-bit
Writing library             : libebml v1.3.6 + libmatroska v1.4.9
Cover                       : Yes
Attachments                 : Cover.jpg

Video
ID                          : 1
Format                      : AVC
Format/Info                 : Advanced Video Codec
Format profile              : [email protected]
Format settings, CABAC      : Yes
Format settings, ReFrames   : 8 frames
Codec ID                    : V_MPEG4/ISO/AVC
Duration                    : 44 min 46 s
Bit rate                    : 1 400 kb/s
Width                       : 1 280 pixels
Height                      : 640 pixels
Display aspect ratio        : 2.000
Frame rate mode             : Constant
Frame rate                  : 25.000 FPS
Color space                 : YUV
Chroma subsampling          : 4:2:0
Bit depth                   : 8 bits
Scan type                   : Progressive
Bits/(Pixel*Frame)          : 0.068
Stream size                 : 448 MiB (71%)
Title                       : www.MovCr.com
Writing library             : x264 core 155 r2901 7d0ff22
Encoding settings           : cabac=1 / ref=8 / deblock=1:-1:-1 / analyse=0x3:0x133 / me=umh / subme=10 / psy=1 / psy_rd=1.00:1.50 / mixed_ref=1 / me_range=16 / chroma_me=1 / trellis=2 / 8x8dct=1 / cqm=0 / deadzone=21,11 / fast_pskip=1 / chroma_qp_offset=-6 / threads=20 / lookahead_threads=1 / sliced_threads=0 / nr=0 / decimate=0 / interlaced=0 / bluray_compat=0 / constrained_intra=0 / bframes=3 / b_pyramid=0 / b_adapt=2 / b_bias=0 / direct=3 / weightb=1 / open_gop=0 / weightp=2 / keyint=240 / keyint_min=1 / scenecut=288 / intra_refresh=0 / rc_lookahead=60 / rc=2pass / mbtree=1 / bitrate=1400 / ratetol=1.0 / qcomp=0.90 / qpmin=3 / qpmax=69 / qpstep=4 / cplxblur=20.0 / qblur=0.5 / ip_ratio=1.40 / aq=1:1.00
Language                    : Hindi
Default                     : Yes
Forced                      : No
Color range                 : Limited
Color primaries             : BT.709
Transfer characteristics    : BT.709
Matrix coefficients         : BT.709

Audio #1
ID                          : 2
Format                      : E-AC-3
Format/Info                 : Enhanced Audio Coding 3
Format settings, Endianness : Big
Codec ID                    : A_EAC3
Duration                    : 45 min 20 s
Bit rate mode               : Constant
Bit rate                    : 192 kb/s
Channel(s)                  : 6 channels
Channel positions           : Front: L C R, Side: L R, LFE
Sampling rate               : 48.0 kHz
Frame rate                  : 187.500 FPS (256 spf)
Compression mode            : Lossy
Stream size                 : 62.3 MiB (10%)
Title                       : www.MovCr.com
Language                    : Hindi
Default                     : Yes
Forced                      : No

Audio #2
ID                          : 4
Format                      : AC-3
Format/Info                 : Audio Coding 3
Mode extension              : CM (complete main)
Format settings, Endianness : Big
Codec ID                    : A_AC3
Duration                    : 44 min 46 s
Bit rate mode               : Constant
Bit rate                    : 384 kb/s
Channel(s)                  : 6 channels
Channel positions           : Front: L C R, Side: L R, LFE
Sampling rate               : 48.0 kHz
Frame rate                  : 31.250 FPS (1536 spf)
Bit depth                   : 16 bits
Compression mode            : Lossy
Stream size                 : 123 MiB (19%)
Title                       : www.MovCr.com
Language                    : English
Default                     : No
Forced                      : No

Text
ID                          : 3
Format                      : UTF-8
Codec ID                    : S_TEXT/UTF8
Codec ID/Info               : UTF-8 Plain Text
Duration                    : 44 min 11 s
Bit rate                    : 41 b/s
Count of elements           : 389
Stream size                 : 13.4 KiB (0%)
Title                       : www.MovCr.com
Language                    : English
Default                     : Yes
Forced                      : No



 
 
 
 
 
 
 
 
 
 
 
 
 
Category:Movies > Bollywood
Lang:Hindi
Total Size:5.31 GB
Info Hash:ec43a472a88a741374f2a8f2b71ad0f01ac3c272
Added By:MAZE
Date Added:06-07-2018 17:14:54
Views:8,169
Hits:1,789

Download Torrent

Ratings:Not Yet Rated (Log in to rate it)


Tracker:
udp://tracker.coppersurfer.tk:6969/announce


File List: 


Comments

<< Previous      Next >>
1 - 1

[Report] Posted: 06-07-2018 at 18:42:52
Dishalover



Uploaded: 0.00 B
Downloaded: 0.00 B
Ratio: ---

plz upload 18+ Sample Bro....

1 - 1
<< Previous      Next >>


Powered by 10 Hamsters v2-svn -|- Page Generated In 2.145451 secs.
-|- RSS FEED
Theme By: Nikkbu