[Login] or [Signup]
Login
Username:
Password:
[Signup]
[Recover Account]


Poll


You must be logged in to view polls



Torrent Details For "Zoo (2018) Hindi 720p HDRip x264 AAC 800MB ESubs [MovCr]"

Zoo (2018) Hindi 720p HDRip x264 AAC 800MB ESubs [MovCr]

Download this torrent | Magnet Download
Health:
Seeds: 681
Leechers: 96
Completed: 10,262 
Last Checked: 14-07-2018 11:02:01
External Torrent
Update Stats
Download Magnet


Poster


iMDB
Imdb Picture Title: Zoo
Runtime: 100 minutes
Language: Hindi
Country: India
All Genres: Drama
Plot Outline: Set in the heart of Mumbai, ZOO depicts lifestyles in and around the ghetto co-existing with the people residing in the upmarket, high-rise buildings of Mumbai. It is a story of a bunch of youngsters trapped and fighting their existence, and traces their lives through 4 parallel tracks. The film delves and inter-weaves the lives of 2 teenaged Dharavi rappers, a coffee-shop waiter who runs his drug delivery at the coffee shop, an under-aged teenage girl who hasn't left her posh South Mumbai apartment in 2 years as she lives the guilt of accidently killing her friends, and another girl staying in the slums working as house help in upmarket Mumbai. As we follow them, we realize that either they are fighting their identities, or are trying to alter their realities or have reluctantly succumbed to it.


Director: Shlok Sharma
Writing By: Shlok Sharma,Shilpa Srivastava,
Produced By: Anupama Ahluwalia,Aarti Bajaj,Vasan Bala,Amrit Pritam Dutta,Sameer Kamble,Anurag Kashyap,Shlok Sharma,Navin Shetty,Samitha Shetty,
Music: R. Venkatraman
Cast:
Shweta Tripathi as
Shashank Arora as Bicky
Rahul Kumar as Messi
Gopal K. Singh as Police Inspector
Prince Daniel as Prince
Yogesh Kurme as Yoku


Watch-Free-HD     Download

Details
Name:Zoo (2018) Hindi 720p HDRip x264 AAC 800MB ESubs [MovCr]
Description:
Visit  www.movcr.com

 http://www.imdb.com/title/tt6149820/

 

General
Unique ID                   : 240100850353991553019866350405830270236 (0xB4A1BDE2792D90817B12976C99935D1C)
Complete name               : www.MovCr.com - Zoo (2018) Hindi 720p HDRip x264 AAC 800MB ESubs [MovCr].mkv
Format                      : Matroska
Format version              : Version 4 / Version 2
File size                   : 879 MiB
Duration                    : 1 h 33 min
Overall bit rate            : 1 309 kb/s
Movie name                  : www.MovCr.com
Encoded date                : UTC 2018-07-06 12:47:20
Writing application         : mkvmerge v23.0.0 ('The Bride Said No') 64-bit
Writing library             : libebml v1.3.6 + libmatroska v1.4.9

Video
ID                          : 1
Format                      : AVC
Format/Info                 : Advanced Video Codec
Format profile              : [email protected]
Format settings, CABAC      : Yes
Format settings, ReFrames   : 4 frames
Codec ID                    : V_MPEG4/ISO/AVC
Duration                    : 1 h 33 min
Bit rate                    : 1 200 kb/s
Width                       : 1 280 pixels
Height                      : 544 pixels
Display aspect ratio        : 2.35:1
Frame rate mode             : Variable
Frame rate                  : 24.000 FPS
Color space                 : YUV
Chroma subsampling          : 4:2:0
Bit depth                   : 8 bits
Scan type                   : Progressive
Bits/(Pixel*Frame)          : 0.072
Stream size                 : 791 MiB (90%)
Title                       : www.MovCr.com
Writing library             : x264 core 148 r2708 86b7198
Encoding settings           : cabac=1 / ref=1 / deblock=1:0:0 / analyse=0x1:0x111 / me=hex / subme=2 / psy=1 / psy_rd=1.00:0.00 / mixed_ref=0 / me_range=16 / chroma_me=1 / trellis=0 / 8x8dct=0 / cqm=0 / deadzone=21,11 / fast_pskip=1 / chroma_qp_offset=0 / threads=17 / lookahead_threads=4 / sliced_threads=0 / nr=0 / decimate=1 / interlaced=0 / bluray_compat=0 / constrained_intra=0 / bframes=3 / b_pyramid=2 / b_adapt=1 / b_bias=0 / direct=1 / weightb=1 / open_gop=0 / weightp=1 / keyint=240 / keyint_min=24 / scenecut=40 / intra_refresh=0 / rc_lookahead=10 / rc=abr / mbtree=1 / bitrate=1200 / ratetol=1.0 / qcomp=0.60 / qpmin=0 / qpmax=69 / qpstep=4 / vbv_maxrate=20000 / vbv_bufsize=25000 / nal_hrd=none / filler=0 / ip_ratio=1.40 / aq=1:1.00
Default                     : Yes
Forced                      : No
Color range                 : Limited
Color primaries             : BT.709
Transfer characteristics    : BT.709
Matrix coefficients         : BT.709

Audio
ID                          : 2
Format                      : AAC
Format/Info                 : Advanced Audio Codec
Format profile              : LC
Codec ID                    : A_AAC
Duration                    : 1 h 33 min
Bit rate                    : 128 kb/s
Channel(s)                  : 2 channels
Channel positions           : Front: L R
Sampling rate               : 48.0 kHz
Frame rate                  : 46.875 FPS (1024 spf)
Compression mode            : Lossy
Delay relative to video     : 62 ms
Stream size                 : 85.9 MiB (10%)
Title                       : www.MovCr.com
Language                    : Hindi
Default                     : Yes
Forced                      : No

Text
ID                          : 3
Format                      : UTF-8
Codec ID                    : S_TEXT/UTF8
Codec ID/Info               : UTF-8 Plain Text
Duration                    : 1 h 32 min
Bit rate                    : 34 b/s
Count of elements           : 750
Stream size                 : 23.8 KiB (0%)
Title                       : www.MovCr.com
Language                    : English
Default                     : No
Forced                      : No



 
 
 
 
 
 
Category:Movies > Bollywood
Lang:Hindi
Total Size:878.85 MB
Info Hash:e69ecb897c25fd1395060efe21dc18ac78b909c5
Added By:MAZE
Date Added:06-07-2018 13:55:54
Views:5,456
Hits:432

Download Torrent

Ratings:Not Yet Rated (Log in to rate it)


Tracker:
udp://tracker.coppersurfer.tk:6969/announce


File List: 


Comments

No comments still posted

Powered by 10 Hamsters v2-svn -|- Page Generated In 1.014607 secs.
-|- RSS FEED
Theme By: Nikkbu