[Login] or [Signup]
Login
Username:
Password:
[Signup]
[Recover Account]


Poll


You must be logged in to view polls



Torrent Details For "Masterpiece (2017) UNCUT 720p HDRip x264 ESubs [Dual Audio]-[Hindi DD2.0 + Malayalam DD5.1] - 1..."

Masterpiece (2017) UNCUT 720p HDRip x264 ESubs [Dual Audio]-[Hindi DD2.0 + Malayalam DD5.1] - 1...

Download this torrent | Magnet Download
Health:
Seeds: 823
Leechers: 623
Completed: 621 
Last Checked: 04-07-2018 08:58:32
External Torrent
Update Stats
Download Magnet


Poster


iMDB
Imdb Picture Title: Masterpiece
Year: 2017
Runtime: 160 minutes
Votes: 1320
Rating: 7.2/10
Language: Malayalam
Country: India
All Genres: Action, Crime, Mystery, Thriller
Plot Outline: Edward Livingston, an English professor at the Travancore Maharaja College. As the defiant students continue to split into warring factions, Livingston sets out to restore order and make the campus a better place for everyone.
Tagline: Master of the Masses
Director: Ajai Vasudev
Writing By: Udaykrishnan,
Music: Deepak Dev
Cast:
Mammootty as Edward Livingstone / Anto Antony
Varalaxmi Sarathkumar as Bhavani Durga
Lena as K. Seethalakshmi
Anjali Nair as Dancer
Poonam Bajwa as Smitha
Megha Mathew as Athira
Mahima Nambiar as Vedika
Unni Mukundan as John Thekkan
Renji Panicker as Prof. Edward Livingstone
Manju Satheesh as Lakshmi


Watch-Free-HD     Download

Details
Name:Masterpiece (2017) UNCUT 720p HDRip x264 ESubs [Dual Audio]-[Hindi DD2.0 + Malayalam DD5.1] - 1...
Description:
Masterpiece (2017) UNCUT 720p HDRip x264 ESubs [Dual Audio]-[Hindi DD2.0 + Malayalam DD5.1] - 1.5GB [MovCr Exclusive]

Dashing Jigarwala 2 - Master Of Masses

 http://www.imdb.com/title/tt6774092/


 

General
Unique ID                   : 68119714758805279313079242787911002530 (0x333F613D9186121FC06288014F1669A2)
Complete name               : Masterpiece (2017) UNCUT 720p HDRip x264 ESubs [Dual Audio]-[Hindi DD2.0 + Malayalam DD5.1] - 1.5GB [MovCr Exclusive]\www.MovCr.com - Masterpiece (2017) UNCUT 720p HDRip x264 ESubs [Dual Audio]-[Hindi DD2.0 + Malayalam DD5.1] - 1.5GB [MovCr Exclusive].mkv
Format                      : Matroska
Format version              : Version 4 / Version 2
File size                   : 1.52 GiB
Duration                    : 2 h 38 min
Overall bit rate mode       : Variable
Overall bit rate            : 1 379 kb/s
Movie name                  : www.MovCr.com
Encoded date                : UTC 2018-07-03 11:41:26
Writing application         : mkvmerge v23.0.0 ('The Bride Said No') 64-bit
Writing library             : libebml v1.3.6 + libmatroska v1.4.9

Video
ID                          : 1
Format                      : AVC
Format/Info                 : Advanced Video Codec
Format profile              : [email protected]
Format settings, CABAC      : Yes
Format settings, ReFrames   : 4 frames
Codec ID                    : V_MPEG4/ISO/AVC
Duration                    : 2 h 38 min
Bit rate                    : 789 kb/s
Width                       : 1 280 pixels
Height                      : 560 pixels
Display aspect ratio        : 2.25:1
Frame rate mode             : Constant
Frame rate                  : 24.000 FPS
Color space                 : YUV
Chroma subsampling          : 4:2:0
Bit depth                   : 8 bits
Scan type                   : Progressive
Bits/(Pixel*Frame)          : 0.046
Stream size                 : 892 MiB (57%)
Title                       : www.MovCr.com
Writing library             : x264 core 155 r2901 7d0ff22
Encoding settings           : cabac=1 / ref=3 / deblock=1:0:0 / analyse=0x3:0x113 / me=hex / subme=7 / psy=1 / psy_rd=1.00:0.00 / mixed_ref=1 / me_range=16 / chroma_me=1 / trellis=1 / 8x8dct=1 / cqm=0 / deadzone=21,11 / fast_pskip=1 / chroma_qp_offset=-2 / threads=12 / lookahead_threads=2 / sliced_threads=0 / nr=0 / decimate=1 / interlaced=0 / bluray_compat=0 / constrained_intra=0 / bframes=3 / b_pyramid=2 / b_adapt=1 / b_bias=0 / direct=1 / weightb=1 / open_gop=0 / weightp=2 / keyint=240 / keyint_min=24 / scenecut=40 / intra_refresh=0 / rc_lookahead=40 / rc=2pass / mbtree=1 / bitrate=789 / ratetol=1.0 / qcomp=0.60 / qpmin=0 / qpmax=69 / qpstep=4 / cplxblur=20.0 / qblur=0.5 / ip_ratio=1.40 / aq=1:1.00
Language                    : Malayalam
Default                     : Yes
Forced                      : No

Audio #1
ID                          : 2
Format                      : AC-3
Format/Info                 : Audio Coding 3
Mode extension              : CM (complete main)
Format settings, Endianness : Big
Codec ID                    : A_AC3
Duration                    : 2 h 38 min
Bit rate mode               : Constant
Bit rate                    : 384 kb/s
Channel(s)                  : 2 channels
Channel positions           : Front: L R
Sampling rate               : 48.0 kHz
Frame rate                  : 31.250 FPS (1536 spf)
Bit depth                   : 16 bits
Compression mode            : Lossy
Stream size                 : 434 MiB (28%)
Title                       : www.MovCr.com
Language                    : Malayalam
Default                     : No
Forced                      : No

Audio #2
ID                          : 3
Format                      : MPEG Audio
Format version              : Version 1
Format profile              : Layer 3
Codec ID                    : A_MPEG/L3
Codec ID/Hint               : MP3
Duration                    : 2 h 38 min
Bit rate mode               : Variable
Bit rate                    : 203 kb/s
Channel(s)                  : 2 channels
Sampling rate               : 48.0 kHz
Frame rate                  : 41.667 FPS (1152 spf)
Compression mode            : Lossy
Stream size                 : 230 MiB (15%)
Title                       : www.MovCr.com
Language                    : Hindi
Default                     : Yes
Forced                      : Yes

Text
ID                          : 4
Format                      : UTF-8
Codec ID                    : S_TEXT/UTF8
Codec ID/Info               : UTF-8 Plain Text
Duration                    : 2 h 28 min
Bit rate                    : 59 b/s
Count of elements           : 2218
Stream size                 : 64.8 KiB (0%)
Title                       : www.MovCr.com
Language                    : English
Default                     : Yes
Forced                      : No


                                             

:::::NOTE::::
Uploader's Note

It's Time for Malayalam Action-Thriller Movie in Perfect Sync and UNCUT Hindi Audio... (It's Indian Dubbed Original Audio)
Plz Note - Malayalam audio is added in between Hindi Audio to make perfect Sync Dual Audio...
Perfect Sync Credits to The MovCr Team
Sample Included in Torrent So please Check Sample Before any Fool Comments...


Category:Movies > South Dub
Lang:Hindi
Total Size:1.55 GB
Info Hash:a148c1001caae0e06362567eb3fe9b78f93e06ac
Added By:MAZE
Date Added:03-07-2018 13:19:44
Views:1,437
Hits:97

Download Torrent

Ratings:Not Yet Rated (Log in to rate it)


Tracker:
udp://tracker.coppersurfer.tk:6969/announce


File List: 


Comments

No comments still posted

Powered by 10 Hamsters v2-svn -|- Page Generated In 3.666729 secs.
-|- RSS FEED
Theme By: Nikkbu