[Login] or [Signup]
Login
Username:
Password:
[Signup]
[Recover Account]


Poll


You must be logged in to view polls



Torrent Details For "Sicario Day of the Soldado 2018 720p HDCAM x264 AAC [MW]"

Sicario Day of the Soldado 2018 720p HDCAM x264 AAC [MW]

Download this torrent | Magnet Download
Health:
Seeds: 317
Leechers: 70
Completed: 11,249 
Last Checked: 09-07-2018 15:04:28
External Torrent
Update Stats
Download Magnet


Poster


iMDB
Imdb Picture Title: Sicario: Day of the Soldado
Year: 2018
Runtime: 122 minutes
Votes: 5314
Rating: 7.5/10
Language: English, Spanish
Country: USA, Italy
All Genres: Action, Crime, Drama, Thriller
Plot Outline: The drug war on the U.S.-Mexico border has escalated as the cartels have begun trafficking terrorists across the US border. To fight the war, federal agent Matt Graver re-teams with the mercurial Alejandro.


Director: Stefano Sollima
Writing By: Taylor Sheridan,
Produced By: Basil Iwanyk,Erica Lee,Thad Luckinbill,Trent Luckinbill,Edward L. McDonnell,Emma McGill,Richard Middleton,Ellen H. Schwartz,Molly Smith,
Music: Hildur Guðnadóttir
Cast:
Benicio Del Toro as Alejandro
Josh Brolin as Matt Graver
Isabela Moner as Isabel Reyes
Jeffrey Donovan as Steve Forsing
Catherine Keener as Cynthia Foards
Manuel Garcia-Rulfo as Gallo
Matthew Modine as James Riley
Shea Whigham as Andy Wheeldon
Elijah Rodriguez as Miguel Hernandez
Howard Ferguson Jr. as Troy
Trailers:
Trailer [OV]
Official Trailer
Trailer #3
Trailer
Teaser Trailer


Watch-Free-HD     Download

Details
Name:Sicario Day of the Soldado 2018 720p HDCAM x264 AAC [MW]
Description:

 


General
Format                                   : Matroska
Format version                           : Version 4 / Version 2
File size                                : 1.03 GiB
Duration                                 : 1 h 50 min
Overall bit rate                         : 1 335 kb/s

Video
ID                                       : 1
Format                                   : AVC
Format/Info                              : Advanced Video Codec
Format profile                           : [email protected]
Format settings                          : CABAC / 4 Ref Frames
Format settings, CABAC                   : Yes
Format settings, RefFrames               : 4 frames
Codec ID                                 : V_MPEG4/ISO/AVC
Duration                                 : 1 h 50 min
Bit rate                                 : 1 200 kb/s
Width                                    : 1 280 pixels
Height                                   : 532 pixels
Display aspect ratio                     : 2.40:1
Frame rate mode                          : Constant
Frame rate                               : 29.970 (30000/1001) FPS
Color space                              : YUV
Chroma subsampling                       : 4:2:0
Bit depth                                : 8 bits
Scan type                                : Progressive
Bits/(Pixel*Frame)                       : 0.059
Stream size                              : 956 MiB (90%)
Writing library                          : x264 core 155 r2901 7d0ff22
Default                                  : Yes
Forced                                   : No

Audio
ID                                       : 2
Format                                   : AAC
Format/Info                              : Advanced Audio Codec
Format profile                           : LC
Codec ID                                 : A_AAC-2
Duration                                 : 1 h 50 min
Bit rate                                 : 128 kb/s
Channel(s)                               : 2 channels
Channel positions                        : Front: L R
Sampling rate                            : 48.0 kHz
Frame rate                               : 46.875 FPS (1024 SPF)
Compression mode                         : Lossy
Stream size                              : 102 MiB (10%)
Language                                 : English
Default                                  : Yes
Forced                                   : No


Click To Enlarge Image
 
 
 
 
 
 

Category:Movies > Pre-Releases
Lang:English  English
Total Size:1.03 GB
Info Hash:bea972f2c2222d3bae5ef77edf8494ace9b5eb99
Added By:Freaky
Date Added:30-06-2018 16:21:10
Views:714
Hits:31

Download Torrent

Ratings:Not Yet Rated (Log in to rate it)


Tracker:
udp://tracker.coppersurfer.tk:6969/announce


File List: 


Comments

No comments still posted

Powered by 10 Hamsters v2-svn -|- Page Generated In 3.630268 secs.
-|- RSS FEED
Theme By: Nikkbu