[Login] or [Signup]
Login
Username:
Password:
[Signup]
[Recover Account]


Poll


You must be logged in to view polls



Torrent Details For "Monster Island 2017 1080p BluRay x264 DTS [MW]"

Monster Island 2017 1080p BluRay x264 DTS [MW]

Download this torrent | Magnet Download
Health:
Seeds: 90
Leechers: 203
Completed: 30 
Last Checked: 25-06-2018 11:31:04
External Torrent
Update Stats
Download Magnet


Poster
No poster


Watch-Free-HD     Download

Details
Name:Monster Island 2017 1080p BluRay x264 DTS [MW]
Description:

 

General
Format                                   : Matroska
Format version                           : Version 4 / Version 2
File size                                : 2.31 GiB
Duration                                 : 1 h 27 min
Overall bit rate                         : 3 771 kb/s

Video
ID                                       : 1
Format                                   : AVC
Format/Info                              : Advanced Video Codec
Format profile                           : [email protected]
Format settings                          : CABAC / 4 Ref Frames
Format settings, CABAC                   : Yes
Format settings, RefFrames               : 4 frames
Codec ID                                 : V_MPEG4/ISO/AVC
Duration                                 : 1 h 27 min
Bit rate                                 : 2 500 kb/s
Width                                    : 1 920 pixels
Height                                   : 1 080 pixels
Display aspect ratio                     : 16:9
Frame rate mode                          : Constant
Frame rate                               : 24.000 FPS
Color space                              : YUV
Chroma subsampling                       : 4:2:0
Bit depth                                : 8 bits
Scan type                                : Progressive
Bits/(Pixel*Frame)                       : 0.050
Stream size                              : 1.39 GiB (60%)
Writing library                          : x264 core 155 r2901 7d0ff22
Default                                  : Yes
Forced                                   : No

Audio
ID                                       : 2
Format                                   : DTS
Format/Info                              : Digital Theater Systems
Codec ID                                 : A_DTS
Duration                                 : 1 h 27 min
Bit rate mode                            : Constant
Bit rate                                 : 1 509 kb/s
Channel(s)                               : 6 channels
Channel positions                        : Front: L C R, Side: L R, LFE
Sampling rate                            : 48.0 kHz
Frame rate                               : 93.750 FPS (512 SPF)
Bit depth                                : 24 bits
Compression mode                         : Lossy
Stream size                              : 948 MiB (40%)
Language                                 : English
Default                                  : Yes
Forced                                   : No

Text
ID                                       : 3
Format                                   : UTF-8
Codec ID                                 : S_TEXT/UTF8
Codec ID/Info                            : UTF-8 Plain Text
Duration                                 : 1 h 15 min
Bit rate                                 : 52 b/s
Count of elements                        : 818
Stream size                              : 29.1 KiB (0%)
Default                                  : Yes
Forced                                   : No


Click To Enlarge Image

 
 
 
 
 
 

Category:Movies > 1080P Bluray
Lang:English  English
Total Size:2.31 GB
Info Hash:25197416cb9388d9d4f2ac996874abf1e36ede01
Added By:Freaky
Date Added:25-06-2018 11:30:55
Views:393
Hits:19

Download Torrent

Ratings:Not Yet Rated (Log in to rate it)


Tracker:
udp://tracker.coppersurfer.tk:6969/announce


File List: 


Comments

No comments still posted

Powered by 10 Hamsters v2-svn -|- Page Generated In 3.650854 secs.
-|- RSS FEED
Theme By: Nikkbu