[Login] or [Signup]
Login
Username:
Password:
[Signup]
[Recover Account]


Poll


You must be logged in to view polls



Torrent Details For "Chanakyatanthram (2018) Malayalam Original DVDRip x264 AAC 700MB ESub [MovCr]"

Chanakyatanthram (2018) Malayalam Original DVDRip x264 AAC 700MB ESub [MovCr]

Download this torrent | Magnet Download
Health:
Seeds: 135
Leechers: 18
Completed: 792 
Last Checked: 25-06-2018 18:02:22
External Torrent
Update Stats
Download Magnet


Poster


iMDB
Imdb Picture Title: Chanakyatanthram
Year: 2018
Runtime: 130 minutes
Votes: 262
Rating: 7.6/10
Language: Malayalam
Country: India
All Genres: Crime, Mystery, Thriller
Plot Outline: A fresh-out-of-college criminologist, finds himself pit against an evil mastermind, whom he has can only outdo by using his wits and courage.


Director: Kannan Thamarakkulam
Writing By: Dinesh Pallath,
Music: Shaan Rahman
Cast:
Anoop Menon as
Unni Mukundan as
Shivada Nair as
Trailers:
Chanakya Thanthram Official Theatrical Trailer


Watch-Free-HD     Download

Details
Name:Chanakyatanthram (2018) Malayalam Original DVDRip x264 AAC 700MB ESub [MovCr]
Description:
Visit   www.movcr.com

 http://www.imdb.com/title/tt7702336/

 

General
Unique ID                   : 329649631771077534657546711744886242625 (0xF80035AECB97EDAB7EB72C7452DE7D41)
Complete name               : www.MovCr.com - Chanakyatanthram (2018) Malayalam Original DVDRip x264 AAC 700MB ESub [MovCr].mkv
Format                      : Matroska
Format version              : Version 4 / Version 2
File size                   : 690 MiB
Duration                    : 2 h 10 min
Overall bit rate            : 741 kb/s
Movie name                  : www.MovCr.com
Encoded date                : UTC 2018-06-19 10:23:07
Writing application         : mkvmerge v23.0.0 ('The Bride Said No') 64-bit
Writing library             : libebml v1.3.6 + libmatroska v1.4.9

Video
ID                          : 1
Format                      : AVC
Format/Info                 : Advanced Video Codec
Format profile              : [email protected]
Format settings, CABAC      : Yes
Format settings, ReFrames   : 4 frames
Codec ID                    : V_MPEG4/ISO/AVC
Duration                    : 2 h 10 min
Bit rate                    : 683 kb/s
Width                       : 720 pixels
Height                      : 304 pixels
Display aspect ratio        : 2.35:1
Frame rate mode             : Constant
Frame rate                  : 30.000 FPS
Color space                 : YUV
Chroma subsampling          : 4:2:0
Bit depth                   : 8 bits
Scan type                   : Progressive
Bits/(Pixel*Frame)          : 0.104
Stream size                 : 629 MiB (91%)
Title                       : www.MovCr.com
Writing library             : x264 core 112
Encoding settings           : cabac=1 / ref=2 / deblock=1:0:0 / analyse=0x1:0x111 / me=hex / subme=6 / psy=1 / psy_rd=1.00:0.00 / mixed_ref=0 / me_range=16 / chroma_me=1 / trellis=0 / 8x8dct=0 / cqm=0 / deadzone=21,11 / fast_pskip=1 / chroma_qp_offset=-2 / threads=12 / sliced_threads=0 / nr=0 / decimate=1 / interlaced=0 / constrained_intra=0 / bframes=2 / b_pyramid=2 / b_adapt=1 / b_bias=0 / direct=1 / weightb=0 / open_gop=0 / weightp=2 / keyint=300 / keyint_min=30 / scenecut=40 / intra_refresh=0 / rc_lookahead=40 / rc=abr / mbtree=1 / bitrate=683 / ratetol=1.0 / qcomp=0.60 / qpmin=3 / qpmax=51 / qpstep=4 / ip_ratio=1.40 / aq=1:1.00
Language                    : English
Default                     : Yes
Forced                      : No
Color range                 : Limited
Color primaries             : BT.709
Transfer characteristics    : BT.709
Matrix coefficients         : BT.709

Audio
ID                          : 2
Format                      : AAC
Format/Info                 : Advanced Audio Codec
Format profile              : LC
Codec ID                    : A_AAC
Duration                    : 2 h 10 min
Bit rate                    : 64.0 kb/s
Channel(s)                  : 2 channels
Channel positions           : Front: L R
Sampling rate               : 44.1 kHz
Frame rate                  : 43.066 FPS (1024 spf)
Compression mode            : Lossy
Stream size                 : 59.6 MiB (9%)
Title                       : www.MovCr.com
Language                    : English
Default                     : Yes
Forced                      : No

Text
ID                          : 3
Format                      : UTF-8
Codec ID                    : S_TEXT/UTF8
Codec ID/Info               : UTF-8 Plain Text
Duration                    : 2 h 8 min
Bit rate                    : 32 b/s
Count of elements           : 885
Stream size                 : 30.9 KiB (0%)
Title                       : www.MovCr.com
Default                     : Yes
Forced                      : No



 
 
 
 
 
 
 
 
Category:Movies > Malayalam
Lang:Malayalam
Total Size:690.47 MB
Info Hash:093493688bf2768d9128c79b2d47650c467aacf9
Added By:MAZE
Date Added:19-06-2018 11:42:15
Views:264
Hits:44

Download Torrent

Ratings:Not Yet Rated (Log in to rate it)


Tracker:
udp://tracker.openbittorrent.com:80/announce

This Torrent also has backup trackers
URLSeedersLeechersCompleted
http://share.camoe.cn:8080/announce000
http://t.nyaatracker.com:80/announce720
http://asnet.pw:2710/announce000
http://tracker.tfile.co:80/announce000
http://pt.lax.mx:80/announce000


File List: 


Comments

No comments still posted

Powered by 10 Hamsters v2-svn -|- Page Generated In 1.479792 secs.
-|- RSS FEED
Theme By: Nikkbu