[Login] or [Signup]
Login
Username:
Password:
[Signup]
[Recover Account]


Poll


You must be logged in to view polls



Torrent Details For "Swathanthryam Ardharathriyil (2018) Malayalam Original DVDRip x264 AAC 700MB ESub [MovCr]"

Swathanthryam Ardharathriyil (2018) Malayalam Original DVDRip x264 AAC 700MB ESub [MovCr]

Download this torrent | Magnet Download
Health:
Seeds: 89
Leechers: 1
Completed: 1,203 
Last Checked: 25-06-2018 18:02:51
External Torrent
Update Stats
Download Magnet


Poster


iMDB
Imdb Picture Title: Swathanthryam Ardharathriyil
Year: 2018
Runtime: 138 minutes
Votes: 318
Rating: 8.3/10
Language: Malayalam
Country: India
All Genres: Action, Crime, Thriller
Plot Outline: Jacob, a manager at a big financial firm, finds himself behind bars when he tries to save the woman he loves from being involved in a criminal case. The only way for him to survive and to escape was to break out of prison.


Director: Tinu Pappachan
Writing By: Dileep Kurian,
Produced By: Chemban Vinod Jose,B.C. Joshy,Lijo Jose Pellissery,B. Unnikrishnan,
Music: Deepak Alexander Jakes Bejoy
Cast:
Antony Varghese as Jacob Varghese
Vinayakan as Simon
Chemban Vinod Jose as Devassy
Tito Wilson as Udayan
Rajesh Sharma as Warden
Lijo Jose Pellissery as Appachan's Advocate
Aswathy Manoharan as Betty
Sinoj Varghese as Girijan
Kichu Tellus as Charlie
Dinesh Nair as Murugan
Trailers:
Official Trailer - Swathandriam Ardharathriyil


Watch-Free-HD     Download

Details
Name:Swathanthryam Ardharathriyil (2018) Malayalam Original DVDRip x264 AAC 700MB ESub [MovCr]
Description:
Visit   www.movcr.com

 http://www.imdb.com/title/tt7548570/

 

General
Unique ID                   : 201161796232635565367323503232389148233 (0x97565A4AC05AD25FFA383394BCBAEE49)
Complete name               : www.MovCr.com - Swathanthryam Ardharathriyil (2018) Malayalam Original DVDRip x264 AAC 700MB ESub [MovCr].mkv
Format                      : Matroska
Format version              : Version 4 / Version 2
File size                   : 707 MiB
Duration                    : 2 h 16 min
Overall bit rate            : 722 kb/s
Movie name                  : www.MovCr.com
Encoded date                : UTC 2018-06-19 10:22:03
Writing application         : mkvmerge v23.0.0 ('The Bride Said No') 64-bit
Writing library             : libebml v1.3.6 + libmatroska v1.4.9

Video
ID                          : 1
Format                      : AVC
Format/Info                 : Advanced Video Codec
Format profile              : [email protected]
Format settings, CABAC      : Yes
Format settings, ReFrames   : 4 frames
Codec ID                    : V_MPEG4/ISO/AVC
Duration                    : 2 h 16 min
Bit rate                    : 648 kb/s
Width                       : 720 pixels
Height                      : 304 pixels
Display aspect ratio        : 2.35:1
Frame rate mode             : Variable
Frame rate                  : 23.976 FPS
Color space                 : YUV
Chroma subsampling          : 4:2:0
Bit depth                   : 8 bits
Scan type                   : Progressive
Bits/(Pixel*Frame)          : 0.123
Stream size                 : 642 MiB (91%)
Title                       : www.MovCr.com
Writing library             : x264 core 112
Encoding settings           : cabac=1 / ref=2 / deblock=1:0:0 / analyse=0x1:0x111 / me=hex / subme=6 / psy=1 / psy_rd=1.00:0.00 / mixed_ref=0 / me_range=16 / chroma_me=1 / trellis=0 / 8x8dct=0 / cqm=0 / deadzone=21,11 / fast_pskip=1 / chroma_qp_offset=-2 / threads=12 / sliced_threads=0 / nr=0 / decimate=1 / interlaced=0 / constrained_intra=0 / bframes=2 / b_pyramid=2 / b_adapt=1 / b_bias=0 / direct=1 / weightb=0 / open_gop=0 / weightp=2 / keyint=240 / keyint_min=23 / scenecut=40 / intra_refresh=0 / rc_lookahead=40 / rc=abr / mbtree=1 / bitrate=648 / ratetol=1.0 / qcomp=0.60 / qpmin=3 / qpmax=51 / qpstep=4 / ip_ratio=1.40 / aq=1:1.00
Language                    : English
Default                     : Yes
Forced                      : No
Color range                 : Limited
Color primaries             : BT.601 NTSC
Transfer characteristics    : BT.709
Matrix coefficients         : BT.601

Audio
ID                          : 2
Format                      : AAC
Format/Info                 : Advanced Audio Codec
Format profile              : LC
Codec ID                    : A_AAC
Duration                    : 2 h 16 min
Bit rate                    : 64.2 kb/s
Channel(s)                  : 2 channels
Channel positions           : Front: L R
Sampling rate               : 48.0 kHz
Frame rate                  : 46.875 FPS (1024 spf)
Compression mode            : Lossy
Stream size                 : 62.8 MiB (9%)
Title                       : www.MovCr.com
Language                    : Malayalam
Default                     : Yes
Forced                      : No

Text
ID                          : 3
Format                      : UTF-8
Codec ID                    : S_TEXT/UTF8
Codec ID/Info               : UTF-8 Plain Text
Duration                    : 2 h 14 min
Bit rate                    : 38 b/s
Count of elements           : 1192
Stream size                 : 37.7 KiB (0%)
Title                       : www.MovCr.com
Default                     : Yes
Forced                      : No



 
 
 
 
 
 
Category:Movies > Malayalam
Lang:Malayalam
Total Size:706.92 MB
Info Hash:1cb44afb519956751d82ab0f606dc72638592467
Added By:MAZE
Date Added:19-06-2018 11:32:01
Views:220
Hits:44

Download Torrent

Ratings:Not Yet Rated (Log in to rate it)


Tracker:
udp://tracker.openbittorrent.com:80/announce

This Torrent also has backup trackers
URLSeedersLeechersCompleted
http://share.camoe.cn:8080/announce000
http://t.nyaatracker.com:80/announce500
http://asnet.pw:2710/announce000
http://tracker.tfile.co:80/announce000
http://pt.lax.mx:80/announce000


File List: 


Comments

No comments still posted

Powered by 10 Hamsters v2-svn -|- Page Generated In 1.123364 secs.
-|- RSS FEED
Theme By: Nikkbu