[Login] or [Signup]
Login
Username:
Password:
[Signup]
[Recover Account]


Poll


You must be logged in to view polls



Torrent Details For "Escape.Plan.2.Hades.2018.720p.BRRip.ESubs.MovCr"

Escape.Plan.2.Hades.2018.720p.BRRip.ESubs.MovCr

Download this torrent | Magnet Download
Health:
Seeds: 0
Leechers: 0
Completed:
Last Checked: 15-06-2018 03:38:55
External Torrent
Update Stats
Download Magnet


Poster


iMDB
Imdb Picture Title: Escape Plan 2: Hades
Year: 2018
Runtime: 93 minutes
Votes: 18
Rating: 7.3/10
Language: English
Country: China, USA
All Genres: Action, Thriller
Plot Outline: Ray Breslin manages an elite team of security specialists trained in the art of breaking people out of the world's most impenetrable prisons. When his most trusted operative, Shu Ren, is kidnapped and disappears inside the most elaborate prison ever built, entirely computerized and constantly changing shape, Ray must track him down with the help of some of his former friends.


Director: Steven C. Miller
Writing By: Miles Chapman,
Produced By: Montgomery Blencowe,Alexander Boies,Robbie Brenner,Barry Brooker,Alastair Burlingham,Mark Canton,Alana Crow,Charlie Dombek,Alexander Eckert,Babak Eftekhari,Randall Emmett,Ted Fox,George Furla,Jon Galanis,Thomas A. Giovine,Wayne Marc Godfrey,Jonathan Helmuth,Qiu Jie,Robert Jones,Corey Large,Ron Lynch,Jasmin Morrison,Vance Owen,Tony Parker,Scott Putman,Zack Schiller,Chris Sivertson,Mark Stewart,Timothy C. Sullivan,Michael J. Urann,Stan Wertlieb,Erin Xie,Su Xing,
Music: The Newton Brothers
Cast:
Dave Bautista as Trent DeRosa
Baylee Curran as Alice
Sylvester Stallone as Ray Breslin
Jaime King as Abigail Ross
Wes Chatham as
Titus Welliver as
Jesse Metcalfe as Luke Walken
50 Cent as Hush
Vincent Young as Curly
Lydia Hull as Jules
Trailers:
Official Trailer


Watch-Free-HD     Download

Details
Name:Escape.Plan.2.Hades.2018.720p.BRRip.ESubs.MovCr
Description:
 www.movcr.com

 http://www.imdb.com/title/tt6513656/

 

General
Unique ID                   : 328151746661110463580681803670187817611 (0xF6DFBA3EBC2B4EACDE3A701AF80A3A8B)
Complete name               : [MovCr.com] - Escape.Plan.2.Hades.2018.720p.BRRip.ESubs.MovCr.mkv
Format                      : Matroska
Format version              : Version 4 / Version 2
File size                   : 902 MiB
Duration                    : 1 h 33 min
Overall bit rate            : 1 347 kb/s
Movie name                  : www.MovCr.com
Encoded date                : UTC 2018-06-15 02:29:38
Writing application         : mkvmerge v23.0.0 ('The Bride Said No') 64-bit
Writing library             : libebml v1.3.6 + libmatroska v1.4.9

Video
ID                          : 2
Format                      : AVC
Format/Info                 : Advanced Video Codec
Format profile              : [email protected]
Format settings, CABAC      : Yes
Format settings, ReFrames   : 9 frames
Codec ID                    : V_MPEG4/ISO/AVC
Duration                    : 1 h 33 min
Bit rate                    : 1 245 kb/s
Width                       : 1 280 pixels
Height                      : 536 pixels
Display aspect ratio        : 2.40:1
Frame rate mode             : Constant
Frame rate                  : 23.976 (24000/1001) FPS
Color space                 : YUV
Chroma subsampling          : 4:2:0
Bit depth                   : 8 bits
Scan type                   : Progressive
Bits/(Pixel*Frame)          : 0.076
Stream size                 : 834 MiB (92%)
Title                       : www.MovCr.com
Writing library             : x264 core 133 r2334 a3ac64b
Encoding settings           : cabac=1 / ref=9 / deblock=1:0:0 / analyse=0x3:0x133 / me=umh / subme=10 / psy=1 / psy_rd=1.00:0.00 / mixed_ref=1 / me_range=24 / chroma_me=1 / trellis=2 / 8x8dct=1 / cqm=0 / deadzone=21,11 / fast_pskip=1 / chroma_qp_offset=-2 / threads=48 / lookahead_threads=4 / sliced_threads=0 / nr=0 / decimate=1 / interlaced=0 / bluray_compat=0 / constrained_intra=0 / bframes=6 / b_pyramid=2 / b_adapt=2 / b_bias=0 / direct=3 / weightb=1 / open_gop=0 / weightp=2 / keyint=240 / keyint_min=23 / scenecut=40 / intra_refresh=0 / rc_lookahead=60 / rc=2pass / mbtree=1 / bitrate=1245 / ratetol=1.0 / qcomp=0.60 / qpmin=0 / qpmax=69 / qpstep=4 / cplxblur=20.0 / qblur=0.5 / vbv_maxrate=62500 / vbv_bufsize=78125 / nal_hrd=none / ip_ratio=1.40 / aq=1:1.00
Default                     : Yes
Forced                      : No

Audio
ID                          : 1
Format                      : AAC
Format/Info                 : Advanced Audio Codec
Format profile              : HE-AAC / LC
Codec ID                    : A_AAC
Duration                    : 1 h 33 min
Bit rate                    : 100.0 kb/s
Channel(s)                  : 2 channels
Channel positions           : Front: L R
Sampling rate               : 48.0 kHz / 24.0 kHz
Frame rate                  : 23.438 FPS (1024 spf)
Compression mode            : Lossy
Delay relative to video     : 31 ms
Stream size                 : 67.0 MiB (7%)
Title                       : www.MovCr.com
Language                    : English
Default                     : Yes
Forced                      : No

Text
ID                          : 3
Format                      : UTF-8
Codec ID                    : S_TEXT/UTF8
Codec ID/Info               : UTF-8 Plain Text
Duration                    : 1 h 24 min
Bit rate                    : 45 b/s
Count of elements           : 850
Stream size                 : 28.2 KiB (0%)
Title                       : www.MovCr.com
Language                    : English
Default                     : Yes
Forced                      : No



 
 
 
 
 
 
Category:Movies > 720P Bluray
Lang:English  English
Total Size:901.93 MB
Info Hash:c8ea868c5493acc4a280ad7ef6fd7bc292a47416
Added By:MAZE
Date Added:15-06-2018 03:38:55
Views:408
Hits:154

Download Torrent

Ratings:Not Yet Rated (Log in to rate it)


Tracker:
udp://tracker.openbittorrent.com:80/announce

This Torrent also has backup trackers
URLSeedersLeechersCompleted
http://share.camoe.cn:8080/announce000
http://t.nyaatracker.com:80/announce000
http://asnet.pw:2710/announce000
http://tracker.tfile.co:80/announce000
http://pt.lax.mx:80/announce000


File List: 


Comments

No comments still posted

Powered by 10 Hamsters v2-svn -|- Page Generated In 1.148348 secs.
-|- RSS FEED
Theme By: Nikkbu