[Login] or [Signup]
Login
Username:
Password:
[Signup]
[Recover Account]


Poll


You must be logged in to view polls



Torrent Details For "Escape Plan 2 Hades 2018 DVDRip x264 AAC [MW]"

Escape Plan 2 Hades 2018 DVDRip x264 AAC [MW]

Download this torrent | Magnet Download
Health:
Seeds: 2,290
Leechers: 1,576
Completed: 7,095 
Last Checked: 15-06-2018 06:08:27
External Torrent
Update Stats
Download Magnet


Poster


iMDB
Imdb Picture Title: Escape Plan 2: Hades
Year: 2018
Runtime: 93 minutes
Votes: 18
Rating: 7.3/10
Language: English
Country: China, USA
All Genres: Action, Thriller
Plot Outline: Ray Breslin manages an elite team of security specialists trained in the art of breaking people out of the world's most impenetrable prisons. When his most trusted operative, Shu Ren, is kidnapped and disappears inside the most elaborate prison ever built, entirely computerized and constantly changing shape, Ray must track him down with the help of some of his former friends.


Director: Steven C. Miller
Writing By: Miles Chapman,
Produced By: Montgomery Blencowe,Alexander Boies,Robbie Brenner,Barry Brooker,Alastair Burlingham,Mark Canton,Alana Crow,Charlie Dombek,Alexander Eckert,Babak Eftekhari,Randall Emmett,Ted Fox,George Furla,Jon Galanis,Thomas A. Giovine,Wayne Marc Godfrey,Jonathan Helmuth,Qiu Jie,Robert Jones,Corey Large,Ron Lynch,Jasmin Morrison,Vance Owen,Tony Parker,Scott Putman,Zack Schiller,Chris Sivertson,Mark Stewart,Timothy C. Sullivan,Michael J. Urann,Stan Wertlieb,Erin Xie,Su Xing,
Music: The Newton Brothers
Cast:
Dave Bautista as Trent DeRosa
Baylee Curran as Alice
Sylvester Stallone as Ray Breslin
Jaime King as Abigail Ross
Wes Chatham as
Titus Welliver as
Jesse Metcalfe as Luke Walken
50 Cent as Hush
Vincent Young as Curly
Lydia Hull as Jules
Trailers:
Official Trailer


Watch-Free-HD     Download

Details
Name:Escape Plan 2 Hades 2018 DVDRip x264 AAC [MW]
Description:

 


General
Format                                   : Matroska
Format version                           : Version 4 / Version 2
File size                                : 814 MiB
Duration                                 : 1 h 33 min
Overall bit rate                         : 1 215 kb/s

Video
ID                                       : 1
Format                                   : AVC
Format/Info                              : Advanced Video Codec
Format profile                           : [email protected]
Format settings                          : CABAC / 4 Ref Frames
Format settings, CABAC                   : Yes
Format settings, RefFrames               : 4 frames
Codec ID                                 : V_MPEG4/ISO/AVC
Duration                                 : 1 h 33 min
Bit rate                                 : 1 100 kb/s
Width                                    : 720 pixels
Height                                   : 304 pixels
Display aspect ratio                     : 2.35:1
Frame rate mode                          : Constant
Frame rate                               : 23.976 (24000/1001) FPS
Color space                              : YUV
Chroma subsampling                       : 4:2:0
Bit depth                                : 8 bits
Scan type                                : Progressive
Bits/(Pixel*Frame)                       : 0.210
Stream size                              : 727 MiB (89%)
Writing library                          : x264 core 155 r2901 7d0ff22
Default                                  : Yes
Forced                                   : No

Audio
ID                                       : 2
Format                                   : AAC
Format/Info                              : Advanced Audio Codec
Format profile                           : LC
Codec ID                                 : A_AAC-2
Duration                                 : 1 h 33 min
Bit rate                                 : 128 kb/s
Channel(s)                               : 2 channels
Channel positions                        : Front: L R
Sampling rate                            : 48.0 kHz
Frame rate                               : 46.875 FPS (1024 SPF)
Compression mode                         : Lossy
Stream size                              : 85.7 MiB (11%)
Language                                 : English
Default                                  : Yes
Forced                                   : No





           

Category:Movies > DVDRips
Lang:English  English
Total Size:813.77 MB
Info Hash:6ac0d4650257c79ef5d91b2601dfb5f7afd30780
Added By:Freaky
Date Added:14-06-2018 20:20:55
Views:964
Hits:181

Download Torrent

Ratings:Not Yet Rated (Log in to rate it)


Tracker:
udp://tracker.coppersurfer.tk:6969/announce


File List: 


Comments

No comments still posted

Powered by 10 Hamsters v2-svn -|- Page Generated In 4.178976 secs.
-|- RSS FEED
Theme By: Nikkbu