[Login] or [Signup]
Login
Username:
Password:
[Signup]
[Recover Account]


Poll


You must be logged in to view polls



Torrent Details For "Black Panther (2018) 1080p Dual Audio BluRay 10Bit x265 HEVC [Hindi DD5.1(384kbps)-English 8CH]..."

Black Panther (2018) 1080p Dual Audio BluRay 10Bit x265 HEVC [Hindi DD5.1(384kbps)-English 8CH]...

Download this torrent | Magnet Download
Health:
Seeds: 162
Leechers: 167
Completed: 1,663 
Last Checked: 17-06-2018 07:43:25
External Torrent
Update Stats
Download Magnet


Poster


iMDB
Imdb Picture Title: Black Panther
Year: 2018
Runtime: 134 minutes
Votes: 56925
Rating: 7.8/10
Language: English
Country: USA
All Genres: Action, Adventure, Sci-Fi
Plot Outline: T'Challa, after the death of his father, the King of Wakanda, returns home to the isolated, technologically advanced African nation to succeed to the throne and take his rightful place as king.
Tagline: Long live the king.
Director: Ryan Coogler
Writing By: Ryan Coogler,Joe Robert Cole,Stan Lee,Jack Kirby,
Produced By: Victoria Alonso,Jeffrey Chernov,Louis D'Esposito,Kevin Feige,David J. Grant,Stan Lee,Nate Moore,
Music: Ludwig Göransson
Cast:
Chadwick Boseman as T'Challa / Black Panther
Michael B. Jordan as Erik Killmonger
Lupita Nyong'o as Nakia
Danai Gurira as Okoye
Martin Freeman as Everett K. Ross
Daniel Kaluuya as W'Kabi
Letitia Wright as Shuri
Winston Duke as M'Baku
Sterling K. Brown as N'Jobu
Angela Bassett as Ramonda
Trailers:
"Entourage" TV Spot
Rise TV Spot
Black Panther Trailer
"King" TV Spot
Official Trailer
Teaser Trailer


Watch-Free-HD     Download

Details
Name:Black Panther (2018) 1080p Dual Audio BluRay 10Bit x265 HEVC [Hindi DD5.1(384kbps)-English 8CH]...
Description:
Black Panther (2018) 1080p Dual Audio BluRay 10Bit x265 HEVC [Hindi DD5.1(384kbps)-English 8CH] ESubs Jitu KartiKing Movies.DigitalMaza.Org 2.8GB

 

 

INFO :-

Best Available Hindi Audio :)

For Direct Download Links ~ Visit :-  Movies.DigitalMaza.Org

For Movies Tv Shows News Updates, Trailers & Reviews ~
Join Filmy Thugs :-
 facebook.com/groups/filmythugs
 facebook.com/filmythugs1
 instagram.com/filmythugs
 t.me/FilmyThugs

Movie Encoded By ~ Jitu (Special Thanks)

Mediainfo :-

General
Black Panther (2018) 1080p Dual Audio BluRay 10Bit x265 HEVC [Hindi DD5.1(384kbps)-English 8CH] ESubs JK.mkv
Format                                   : Matroska
Format version                           : Version 4 / Version 2
File size                                : 2.87 GiB
Duration                                 : 2 h 14 min
Overall bit rate                         : 3 057 kb/s
Encoded date                             : UTC 2018-06-13 10:35:40
Writing application                      : mkvmerge v20.0.0 ('I Am The Sun') 32-bit
Writing library                          : libebml v1.3.5 + libmatroska v1.4.8

Video
ID                                       : 1
Format                                   : HEVC
Format/Info                              : High Efficiency Video Coding
Format profile                           : Main [email protected]@Main
Codec ID                                 : V_MPEGH/ISO/HEVC
Duration                                 : 2 h 14 min
Bit rate                                 : 2 369 kb/s
Width                                    : 1 920 pixels
Height                                   : 808 pixels
Display aspect ratio                     : 2.40:1
Frame rate mode                          : Constant
Frame rate                               : 23.976 (24000/1001) FPS
Color space                              : YUV
Chroma subsampling                       : 4:2:0
Bit depth                                : 10 bits
Bits/(Pixel*Frame)                       : 0.064
Stream size                              : 2.23 GiB (77%)
Default                                  : Yes
Forced                                   : No

Audio #1
ID                                       : 2
Format                                   : AC-3
Format/Info                              : Audio Coding 3
Codec ID                                 : A_AC3
Duration                                 : 2 h 14 min
Bit rate mode                            : Constant
Bit rate                                 : 384 kb/s
Channel(s)                               : 6 channels
Channel positions                        : Front: L C R, Side: L R, LFE
Sampling rate                            : 48.0 kHz
Frame rate                               : 31.250 FPS (1536 SPF)
Bit depth                                : 16 bits
Compression mode                         : Lossy
Delay relative to video                  : 1 s 0 ms
Stream size                              : 370 MiB (13%)
Language                                 : Hindi
Service kind                             : Complete Main
Default                                  : Yes
Forced                                   : Yes

Audio #2
ID                                       : 3
Format                                   : AAC
Format/Info                              : Advanced Audio Codec
Format profile                           : HE-AAC / LC
Format settings                          : Explicit
Codec ID                                 : A_AAC-2
Duration                                 : 2 h 14 min
Bit rate                                 : 302 kb/s
Channel(s)                               : 7 channels
Channel(s)_Original                      : 8 channels
Channel positions                        : Front: L C R, Side: L R, Back: L R, LFE
Sampling rate                            : 48.0 kHz / 24.0 kHz
Frame rate                               : 23.438 FPS (1024 SPF)
Compression mode                         : Lossy
Delay relative to video                  : 31 ms
Stream size                              : 290 MiB (10%)
Language                                 : English
Default                                  : No
Forced                                   : No

Text #1
ID                                       : 4
Format                                   : UTF-8
Codec ID                                 : S_TEXT/UTF8
Codec ID/Info                            : UTF-8 Plain Text
Duration                                 : 2 h 14 min
Bit rate                                 : 42 b/s
Count of elements                        : 1575
Stream size                              : 41.5 KiB (0%)
Language                                 : English
Default                                  : No
Forced                                   : No

Text #2
ID                                       : 5
Format                                   : UTF-8
Codec ID                                 : S_TEXT/UTF8
Codec ID/Info                            : UTF-8 Plain Text
Duration                                 : 2 h 14 min
Bit rate                                 : 49 b/s
Count of elements                        : 1835
Stream size                              : 48.2 KiB (0%)
Language                                 : English
Default                                  : Yes
Forced                                   : Yes

Menu
00:00:00.000                             : :Chapter 1
00:06:56.400                             : :Chapter 2
00:12:03.000                             : :Chapter 3
00:19:12.400                             : :Chapter 4
00:28:33.200                             : :Chapter 5
00:33:11.800                             : :Chapter 6
00:40:57.600                             : :Chapter 7
00:48:34.200                             : :Chapter 8
00:53:46.200                             : :Chapter 9
01:01:57.400                             : :Chapter 10
01:08:33.200                             : :Chapter 11
01:16:46.800                             : :Chapter 12
01:22:24.200                             : :Chapter 13
01:31:21.600                             : :Chapter 14
01:41:15.400                             : :Chapter 15
01:50:56.800                             : :Chapter 16
01:59:17.200                             : :Chapter 17
02:02:44.000                             : :Chapter 18


SCREENSHOTS :-

 
 
 
 


KartiKing
For Movies Tv Shows News Updates, Trailers & Reviews ~
Join Filmy Thugs :-
FB Group ~
 facebook.com/groups/filmythugs
FB Page ~
 facebook.com/filmythugs1
Instagram ~
 instagram.com/filmythugs
Telegram ~
 t.me/FilmyThugs

 

 


Category:Movies > Hollywood Dub
Lang:Hindi
Total Size:2.89 GB
Info Hash:77cebda2846ea8a74b5f213a1d9bcb0465abd5ab
Added By:KartiKing
Date Added:13-06-2018 16:58:35
Views:261
Hits:68

Download Torrent

Ratings:Not Yet Rated (Log in to rate it)


Tracker:
udp://tracker.coppersurfer.tk:6969/announce


File List: 


Comments

No comments still posted

Powered by 10 Hamsters v2-svn -|- Page Generated In 1.329140 secs.
-|- RSS FEED
Theme By: Nikkbu