[Login] or [Signup]
Login
Username:
Password:
[Signup]
[Recover Account]


Poll


You must be logged in to view polls



Torrent Details For "Black Dawn 2005 x264 Esub DvD Dual Audio English Hindi GOPISAHI"

Black Dawn 2005 x264 Esub DvD Dual Audio English Hindi GOPISAHI

Download this torrent | Magnet Download
Health:
Seeds: 0
Leechers: 0
Completed:
Last Checked: 13-06-2018 08:18:43
External Torrent
Update Stats
Download Magnet


Poster
No poster


Watch-Free-HD     Download

Details
Name:Black Dawn 2005 x264 Esub DvD Dual Audio English Hindi GOPISAHI
Description:
 http://www.gopisahi.pw/

Format                         : Matroska
Format version                 : Version 4 / Version 2
File size                      : 289 MiB
Duration                       : 1 h 35 min
Overall bit rate               : 421 kb/s
Movie name                     : Black Dawn 2005 GOPISAHI

Video
Format                         : AVC
Codec ID                       : V_MPEG4/ISO/AVC
Duration                       : 1 h 35 min
Bit rate                       : 250 kb/s
Width                          : 720 pixels
Height                         : 400 pixels
Display aspect ratio           : 16:9
Frame rate mode                : Constant
Frame rate                     : 23.976 (24000/1001) FPS
Color space                    : YUV
Chroma subsampling             : 4:2:0
Bit depth                      : 8 bits
Scan type                      : Progressive
Bits/(Pixel*Frame)             : 0.036
Stream size                    : 172 MiB (59%)
Title                          : GOPISAHI
Writing library                : x264 core 155 r2893 b00bcaf

Audio #1
Format                         : AAC
Duration                       : 1 h 35 min
Bit rate                       : 80.9 kb/s
Channel(s)                     : 6 channels
Channel positions              : Front: L C R, Side: L R, LFE
Sampling rate                  : 44.1 kHz
Frame rate                     : 43.066 FPS (1024 SPF)
Compression mode               : Lossy
Stream size                    : 55.6 MiB (19%)
Title                          : GOPISAHI
Language                       : English

Audio #2
Format                         : AAC
Duration                       : 1 h 35 min
Bit rate                       : 87.9 kb/s
Channel(s)                     : 6 channels
Channel positions              : Front: L C R, Side: L R, LFE
Sampling rate                  : 44.1 kHz
Frame rate                     : 43.066 FPS (1024 SPF)
Compression mode               : Lossy
Stream size                    : 60.3 MiB (21%)
Title                          : GOPISAHI
Language                       : Hindi

Text
Language                       : English


Category:Movies > Hollywood Dub
Lang:Hindi
Total Size:289.33 MB
Info Hash:81d0b9592ae374efd6cf91fbd1ed3111c328d5c8
Added By:Unknown
Date Added:13-06-2018 08:18:43
Views:427
Hits:18

Download Torrent

Ratings:Not Yet Rated (Log in to rate it)


Tracker:
udp://9.rarbg.com:2740/announce


File List: 


Comments

No comments still posted

Powered by 10 Hamsters v2-svn -|- Page Generated In 0.280443 secs.
-|- RSS FEED
Theme By: Nikkbu