[Login] or [Signup]
Login
Username:
Password:
[Signup]
[Recover Account]


Poll


You must be logged in to view polls



Torrent Details For "7 Days in Entebbe.2018.720p.HDRip.H264.AC3.MovCr"

7 Days in Entebbe.2018.720p.HDRip.H264.AC3.MovCr

Download this torrent | Magnet Download
Health:
Seeds: 0
Leechers: 0
Completed:
Last Checked: 12-06-2018 08:53:30
External Torrent
Update Stats
Download Magnet


Poster


iMDB
Imdb Picture Original Title: Entebbe
Title: 7 Days in Entebbe
Year: 2018
Runtime: 107 minutes
Votes: 2299
Rating: 5.8/10
Language: English, German, French, Hebrew
Country: UK, USA
All Genres: Crime, Drama, History, Thriller
Plot Outline: In July 1976, an Air France flight from Tel-Aviv to Paris via Athens was hijacked and forced to land in Entebbe, Uganda. The Jewish passengers were separated and held hostage in demand to release many terrorists held in Israeli prisons. After much debate, the Israeli government sent an elite commando unit to raid the airfield and release the hostages.


Tagline: Inspired by True Events.
Director: José Padilha
Writing By: Gregory Burke,
Produced By: Tim Bevan,Jo Burn,Liza Chasin,Olivier Courson,Jean-Claude Darmon,Eric Fellner,Ron Halpern,Jonathan King,Oliver Mallia,Angela Morrison,Jeff Skoll,Kate Solomon,Michelle Wright,
Music: Rodrigo Amarante
Cast:
Rosamund Pike as Brigitte Kuhlmann
Eddie Marsan as Shimon Peres
Daniel Brühl as Wilfried Böse
Nonso Anozie as Idi Amin
Ben Schnetzer as Zeev Hirsch
Kamil Lemieszewski as Greek Pilot
Juan Pablo Raba as Juan Pablo
Mark Ivanir as General Motta Gur
Denis Ménochet as Jacques Le Moine
Brontis Jodorowsky as Captain Bacos
Trailers:
Trailer #1


Watch-Free-HD     Download

Details
Name:7 Days in Entebbe.2018.720p.HDRip.H264.AC3.MovCr
Description:
 www.movcr.com

 http://www.imdb.com/title/tt5466186/

 

General
Unique ID                   : 265705557190022175815439841429040703206 (0xC7E50765DFF211F72C0FE00F6434A6E6)
Complete name               : 7 Days in Entebbe.2018.720p.HDRip.H264.AC3.MovCr.mkv
Format                      : Matroska
Format version              : Version 4 / Version 2
File size                   : 748 MiB
Duration                    : 1 h 47 min
Overall bit rate            : 977 kb/s
Movie name                  : www.MovCr.com
Encoded date                : UTC 2018-06-12 07:44:01
Writing application         : mkvmerge v23.0.0 ('The Bride Said No') 64-bit
Writing library             : libebml v1.3.6 + libmatroska v1.4.9

Video
ID                          : 1
Format                      : AVC
Format/Info                 : Advanced Video Codec
Format profile              : [email protected]
Format settings, CABAC      : Yes
Format settings, ReFrames   : 4 frames
Codec ID                    : V_MPEG4/ISO/AVC
Duration                    : 1 h 47 min
Bit rate                    : 592 kb/s
Width                       : 1 272 pixels
Height                      : 528 pixels
Display aspect ratio        : 2.40:1
Frame rate mode             : Constant
Frame rate                  : 23.976 (24000/1001) FPS
Color space                 : YUV
Chroma subsampling          : 4:2:0
Bit depth                   : 8 bits
Scan type                   : Progressive
Bits/(Pixel*Frame)          : 0.037
Stream size                 : 453 MiB (61%)
Title                       : www.MovCr.com
Writing library             : x264 core 155 r2901 7d0ff22
Encoding settings           : cabac=1 / ref=3 / deblock=1:0:0 / analyse=0x3:0x113 / me=hex / subme=7 / psy=1 / psy_rd=1.00:0.00 / mixed_ref=1 / me_range=16 / chroma_me=1 / trellis=1 / 8x8dct=1 / cqm=0 / deadzone=21,11 / fast_pskip=1 / chroma_qp_offset=-2 / threads=12 / lookahead_threads=2 / sliced_threads=0 / nr=0 / decimate=1 / interlaced=0 / bluray_compat=0 / constrained_intra=0 / bframes=3 / b_pyramid=2 / b_adapt=1 / b_bias=0 / direct=1 / weightb=1 / open_gop=0 / weightp=2 / keyint=240 / keyint_min=23 / scenecut=40 / intra_refresh=0 / rc_lookahead=40 / rc=2pass / mbtree=1 / bitrate=592 / ratetol=1.0 / qcomp=0.60 / qpmin=0 / qpmax=69 / qpstep=4 / cplxblur=20.0 / qblur=0.5 / ip_ratio=1.40 / aq=1:1.00
Default                     : Yes
Forced                      : No

Audio
ID                          : 2
Format                      : AC-3
Format/Info                 : Audio Coding 3
Mode extension              : CM (complete main)
Format settings, Endianness : Big
Codec ID                    : A_AC3
Duration                    : 1 h 47 min
Bit rate mode               : Constant
Bit rate                    : 384 kb/s
Channel(s)                  : 6 channels
Channel positions           : Front: L C R, Side: L R, LFE
Sampling rate               : 48.0 kHz
Frame rate                  : 31.250 FPS (1536 spf)
Bit depth                   : 16 bits
Compression mode            : Lossy
Stream size                 : 294 MiB (39%)
Title                       : www.MovCr.com
Language                    : English
Default                     : Yes
Forced                      : No

Menu
00:00:00.000                : en:1
00:02:33.569                : en:2
00:06:18.669                : en:3
00:12:01.261                : en:4
00:19:01.430                : en:5
00:24:12.574                : en:6
00:28:11.604                : en:7
00:32:44.418                : en:8
00:38:11.410                : en:9
00:44:33.542                : en:10
00:49:32.465                : en:11
00:53:07.011                : en:12
00:58:23.702                : en:13
01:04:05.543                : en:14
01:08:08.618                : en:15
01:16:14.979                : en:16
01:21:12.609                : en:17
01:28:58.991                : en:18
01:37:32.838                : en:19
01:39:10.894                : en:20



 
 
 
 
 
Category:Movies > HDRips
Lang:English  English
Total Size:748.13 MB
Info Hash:6b1b482ec054653ba70ec26a30ce572b262ae26b
Added By:MAZE
Date Added:12-06-2018 08:53:30
Views:189
Hits:34

Download Torrent

Ratings:Not Yet Rated (Log in to rate it)


Tracker:
udp://tracker.openbittorrent.com:80/announce

This Torrent also has backup trackers
URLSeedersLeechersCompleted
http://share.camoe.cn:8080/announce000
http://t.nyaatracker.com:80/announce000
http://asnet.pw:2710/announce000
http://tracker.tfile.co:80/announce000
http://pt.lax.mx:80/announce000


File List: 


Comments

No comments still posted

Powered by 10 Hamsters v2-svn -|- Page Generated In 0.958297 secs.
-|- RSS FEED
Theme By: Nikkbu