[Login] or [Signup]
Login
Username:
Password:
[Signup]
[Recover Account]


Poll


You must be logged in to view polls



Torrent Details For "Kaala 2018 Hindi 720p PreDVD Rip x264 AAC [MW]"

Kaala 2018 Hindi 720p PreDVD Rip x264 AAC [MW]

Download this torrent | Magnet Download
Health:
Seeds: 760
Leechers: 193
Completed: 9,577 
Last Checked: 17-06-2018 15:30:48
External Torrent
Update Stats
Download Magnet


Poster


iMDB
Imdb Picture Title: Kaala
Year: 2018
Runtime: 162 minutes
Votes: 658
Rating: 8.7/10
Language: Tamil, Hindi, Telugu
Country: India
All Genres: Action, Crime, Drama
Plot Outline: Kaala is about the life of Nellai / Tirunelveli based Tamils who live in large number in Mumbai.


Tagline: Karikaalan
Director: Pa. Ranjith
Writing By: Shivgopal Krishna,Pa. Ranjith,Ranjeet Bahadur,M. Sreeramakrishna,Maginan,Aadhavan Theetchanya,
Produced By: Dhanush,Jairaj Parayan,
Music: Santhosh Narayanan
Cast:
Rajinikanth as Karikaalan
Nana Patekar as Harinath Desai
Samuthirakani as Anbu
Aruldoss as
Easwari Rao as Selvi
Huma Qureshi as Zareena
Anjali Patil as Puyal Charumathi Gaekwad
Sukanya as
Dileepan as
Aravind Akash as Shivaji Rao Gaekwad
Trailers:
Kaala Official Trailer


Watch-Free-HD     Download

Details
Name:Kaala 2018 Hindi 720p PreDVD Rip x264 AAC [MW]
Description:


 

Format                                   : Matroska
Format version                           : Version 4 / Version 2
File size                                : 1.13 GiB
Duration                                 : 2 h 37 min
Overall bit rate                         : 1 034 kb/s

Video
ID                                       : 1
Format                                   : AVC
Format/Info                              : Advanced Video Codec
Format profile                           : [email protected]
Format settings                          : CABAC / 4 Ref Frames
Format settings, CABAC                   : Yes
Format settings, RefFrames               : 4 frames
Codec ID                                 : V_MPEG4/ISO/AVC
Duration                                 : 2 h 37 min
Bit rate                                 : 900 kb/s
Width                                    : 1 280 pixels
Height                                   : 422 pixels
Display aspect ratio                     : 3.033
Frame rate mode                          : Constant
Frame rate                               : 25.000 FPS
Color space                              : YUV
Chroma subsampling                       : 4:2:0
Bit depth                                : 8 bits
Scan type                                : Progressive
Bits/(Pixel*Frame)                       : 0.067
Stream size                              : 1 015 MiB (87%)
Writing library                          : x264 core 155 r2901 7d0ff22
Default                                  : Yes
Forced                                   : No

Audio
ID                                       : 2
Format                                   : AAC
Format/Info                              : Advanced Audio Codec
Format profile                           : LC
Codec ID                                 : A_AAC-2
Duration                                 : 2 h 37 min
Bit rate                                 : 128 kb/s
Channel(s)                               : 2 channels
Channel positions                        : Front: L R
Sampling rate                            : 48.0 kHz
Frame rate                               : 46.875 FPS (1024 SPF)
Compression mode                         : Lossy
Stream size                              : 144 MiB (12%)
Language                                 : Hindi
Default                                  : Yes
Forced                                   : No






             

Category:Movies > Bollywood
Lang:Hindi
Total Size:1.13 GB
Info Hash:5f70666a8e94ce05a73ce4831a0c65833b47c462
Added By:Freaky
Date Added:12-06-2018 08:11:26
Views:3,754
Hits:699

Download Torrent

Ratings:Not Yet Rated (Log in to rate it)


Tracker:
udp://tracker.coppersurfer.tk:6969/announce


File List: 


Comments

No comments still posted

Powered by 10 Hamsters v2-svn -|- Page Generated In 0.950837 secs.
-|- RSS FEED
Theme By: Nikkbu