[Login] or [Signup]
Login
Username:
Password:
[Signup]
[Recover Account]


Poll


You must be logged in to view polls



Torrent Details For "October 2018 Hindi 720p WEB-DL x264 ESub [MW]"

October 2018 Hindi 720p WEB-DL x264 ESub [MW]

Download this torrent | Magnet Download
Health:
Seeds: 1,082
Leechers: 286
Completed: 7,772 
Last Checked: 12-06-2018 12:32:44
External Torrent
Update Stats
Download Magnet


Poster


iMDB
Imdb Picture Title: October
Year: 2018
Runtime: 115 minutes
Votes: 1143
Rating: 8.5/10
Language: Hindi
All Genres: Drama, Romance
Plot Outline: Dan (Varun Dhawan) is living the life of any carefree 21 year old, revolving around a bunch of friends and fellow hotel interns who feed off each other's everyday moments, their ups and ...
Tagline: This is not a love story. This is a story about love.
Director: Shoojit Sircar
Writing By: Juhi Chaturvedi,
Produced By: Sheel Kumar,Ronnie Lahiri,Kumar Thakur,
Music: Shantanu Moitra
Cast:
Varun Dhawan as Danish Walia
Gitanjali Rao as Prof. Vidya Iyer
Banita Sandhu as Shiuli
Sahil Vedoliyaa as Manjeet


Watch-Free-HD     Download

Details
Name:October 2018 Hindi 720p WEB-DL x264 ESub [MW]
Description:


 


General
Format                                   : Matroska
Format version                           : Version 4 / Version 2
File size                                : 916 MiB
Duration                                 : 1 h 54 min
Overall bit rate                         : 1 118 kb/s

Video
ID                                       : 1
Format                                   : AVC
Format/Info                              : Advanced Video Codec
Format profile                           : [email protected]
Format settings                          : CABAC / 4 Ref Frames
Format settings, CABAC                   : Yes
Format settings, RefFrames               : 4 frames
Codec ID                                 : V_MPEG4/ISO/AVC
Duration                                 : 1 h 54 min
Bit rate                                 : 1 000 kb/s
Width                                    : 1 280 pixels
Height                                   : 540 pixels
Display aspect ratio                     : 2.40:1
Frame rate mode                          : Constant
Frame rate                               : 23.976 (23976/1000) FPS
Color space                              : YUV
Chroma subsampling                       : 4:2:0
Bit depth                                : 8 bits
Scan type                                : Progressive
Bits/(Pixel*Frame)                       : 0.060
Stream size                              : 811 MiB (89%)
Writing library                          : x264 core 155 r2901 7d0ff22
Default                                  : Yes
Forced                                   : No

Audio
ID                                       : 2
Format                                   : AAC
Format/Info                              : Advanced Audio Codec
Format profile                           : HE-AAC / LC
Format settings                          : Explicit
Codec ID                                 : A_AAC-2
Duration                                 : 1 h 54 min
Bit rate                                 : 127 kb/s
Channel(s)                               : 2 channels
Channel positions                        : Front: L R
Sampling rate                            : 48.0 kHz / 24.0 kHz
Frame rate                               : 23.438 FPS (1024 SPF)
Compression mode                         : Lossy
Stream size                              : 104 MiB (11%)
Default                                  : Yes
Forced                                   : No

Text
ID                                       : 3
Format                                   : UTF-8
Codec ID                                 : S_TEXT/UTF8
Codec ID/Info                            : UTF-8 Plain Text
Duration                                 : 1 h 46 min
Bit rate                                 : 41 b/s
Count of elements                        : 1118
Stream size                              : 32.6 KiB (0%)
Default                                  : Yes
Forced                                   : No




               

Category:Movies > Bollywood
Lang:Hindi
Total Size:916.26 MB
Info Hash:f989c2382c1a536d301c52e5101af8bf1045553d
Added By:Freaky
Date Added:10-06-2018 07:22:41
Views:2,366
Hits:547

Download Torrent

Ratings:Not Yet Rated (Log in to rate it)


Tracker:
udp://tracker.coppersurfer.tk:6969/announce


File List: 


Comments

No comments still posted

Powered by 10 Hamsters v2-svn -|- Page Generated In 1.215854 secs.
-|- RSS FEED
Theme By: Nikkbu