[Login] or [Signup]
Login
Username:
Password:
[Signup]
[Recover Account]


Poll


You must be logged in to view polls



Torrent Details For "Sukhamano Daveede (2018) Malayalam 1080p WEBHD AAC 1.8GB [MovCr]"

Sukhamano Daveede (2018) Malayalam 1080p WEBHD AAC 1.8GB [MovCr]

Download this torrent | Magnet Download
Health:
Seeds: 8
Leechers: 23
Completed:
Last Checked: 08-06-2018 17:59:33
External Torrent
Update Stats
Download Magnet


Poster


iMDB
Imdb Picture Title: Sukhamano Daveede
Year: 2018
Runtime: 122 minutes
Votes: 7
Rating: 8.4/10
Language: Malayalam
Country: India
All Genres: Comedy, Drama
Plot Outline: Sughamano Daveede is a Malayalam movie starring Bhagath Manuel, Chethan Jayalal and Priyanka Nair in prominent roles. It is a drama directed by Anup Chandran and Raja Mohan.


Director: Anup Chandran
Raja Mohan
Writing By: Tomy Kiriyanthan,Krishna Poojappura,
Produced By: Tomy Kiriyanthan,
Music: Mohan Sitara
Cast:
Manju Satheesh as
Noby Marcose as
Chethan Jayalal as
Nirmal Palazhi as
Priyanka Nair as
Arya Rohit as
Bhagath Baby Manuel as
Bijukuttan as
Nandu as
Thara Kalyan as


Watch-Free-HD     Download

Details
Name:Sukhamano Daveede (2018) Malayalam 1080p WEBHD AAC 1.8GB [MovCr]
Description:
Visit  Our Site  www.movcr.com

 http://www.imdb.com/title/tt6789370/

 

General
Unique ID                   : 182841319360502753465032540428338547978 (0x898DF50B3D906D0B673D6A6F77394D0A)
Complete name               : www.MovCr.com-Sukhamano Daveede (2018) Malayalam 1080p WEBHD AAC 1.8GB [MovCr].mkv
Format                      : Matroska
Format version              : Version 4 / Version 2
File size                   : 1.77 GiB
Duration                    : 1 h 59 min
Overall bit rate            : 2 125 kb/s
Movie name                  : www.MovCr.com
Encoded date                : UTC 2018-06-08 16:32:00
Writing application         : mkvmerge v23.0.0 ('The Bride Said No') 64-bit
Writing library             : libebml v1.3.6 + libmatroska v1.4.9

Video
ID                          : 1
Format                      : AVC
Format/Info                 : Advanced Video Codec
Format profile              : [email protected]
Format settings, CABAC      : Yes
Format settings, ReFrames   : 4 frames
Codec ID                    : V_MPEG4/ISO/AVC
Duration                    : 1 h 59 min
Bit rate                    : 1 997 kb/s
Nominal bit rate            : 2 500 kb/s
Width                       : 1 280 pixels
Height                      : 720 pixels
Display aspect ratio        : 16:9
Frame rate mode             : Constant
Frame rate                  : 25.000 FPS
Color space                 : YUV
Chroma subsampling          : 4:2:0
Bit depth                   : 8 bits
Scan type                   : Progressive
Bits/(Pixel*Frame)          : 0.087
Stream size                 : 1.66 GiB (94%)
Title                       : www.MovCr.com
Writing library             : x264 core 148 r2694 3b70645
Encoding settings           : cabac=1 / ref=3 / deblock=1:0:0 / analyse=0x1:0x111 / me=hex / subme=7 / psy=1 / psy_rd=1.00:0.00 / mixed_ref=1 / me_range=16 / chroma_me=1 / trellis=1 / 8x8dct=0 / cqm=0 / deadzone=21,11 / fast_pskip=1 / chroma_qp_offset=-2 / threads=22 / lookahead_threads=3 / sliced_threads=0 / nr=0 / decimate=1 / interlaced=0 / bluray_compat=0 / constrained_intra=0 / bframes=3 / b_pyramid=2 / b_adapt=1 / b_bias=0 / direct=1 / weightb=1 / open_gop=0 / weightp=2 / keyint=50 / keyint_min=26 / scenecut=0 / intra_refresh=0 / rc_lookahead=40 / rc=cbr / mbtree=1 / bitrate=2500 / ratetol=1.0 / qcomp=0.60 / qpmin=0 / qpmax=69 / qpstep=4 / vbv_maxrate=2500 / vbv_bufsize=2500 / nal_hrd=none / filler=0 / ip_ratio=1.40 / aq=1:1.00
Default                     : Yes
Forced                      : No

Audio
ID                          : 2
Format                      : AAC
Format/Info                 : Advanced Audio Codec
Format profile              : LC
Codec ID                    : A_AAC
Duration                    : 1 h 59 min
Bit rate                    : 125 kb/s
Channel(s)                  : 2 channels
Channel positions           : Front: L R
Sampling rate               : 44.1 kHz
Frame rate                  : 43.066 FPS (1024 spf)
Compression mode            : Lossy
Delay relative to video     : -80 ms
Stream size                 : 107 MiB (6%)
Title                       : www.MovCr.com
Default                     : Yes
Forced                      : No



 
 
 
 
 
 
 
Category:Movies > Malayalam
Lang:Malayalam
Total Size:1.77 GB
Info Hash:eb47db9f69e30ee70c1f2bb8c8cbef504d76dfd0
Added By:MAZE
Date Added:08-06-2018 17:39:38
Views:212
Hits:25

Download Torrent

Ratings:Not Yet Rated (Log in to rate it)


Tracker:
udp://tracker.openbittorrent.com:80/announce

This Torrent also has backup trackers
URLSeedersLeechersCompleted
http://share.camoe.cn:8080/announce000
http://t.nyaatracker.com:80/announce000
http://asnet.pw:2710/announce000
http://tracker.tfile.co:80/announce120
http://pt.lax.mx:80/announce000


File List: 


Comments

No comments still posted

Powered by 10 Hamsters v2-svn -|- Page Generated In 1.285970 secs.
-|- RSS FEED
Theme By: Nikkbu