[Login] or [Signup]
Login
Username:
Password:
[Signup]
[Recover Account]


Poll


You must be logged in to view polls



Torrent Details For "Chamak (2017) Kannada 720p HDRip x264 AAC ESubs 900MB [MovCr]"

Chamak (2017) Kannada 720p HDRip x264 AAC ESubs 900MB [MovCr]

Download this torrent | Magnet Download
Health:
Seeds: 0
Leechers: 0
Completed:
Last Checked: 08-06-2018 09:43:29
External Torrent
Update Stats
Download Magnet


Poster


iMDB
Imdb Picture Title: Chamak
Year: 2017
Runtime: 155 minutes
Votes: 105
Rating: 7.9/10
Language: Kannada
Country: India
All Genres: Comedy
Plot Outline: Kush, a gynaecologist and a playboy refuses his family's wishes to marry because his freedom will be curtailed if he marries. He later marries Khushi, an innocent girl while acting as if he is also an innocent guy in front of her family.
Director: Suni
Writing By: Suni,
Produced By: Chandrashekar,
Music: Judah Sandy
Cast:
Ganesh as Kush
Rashmika Mandanna as Khushi
Sadhu Kokila as


Watch-Free-HD     Download

Details
Name:Chamak (2017) Kannada 720p HDRip x264 AAC ESubs 900MB [MovCr]
Description:
Visit our site  www.movcr.com

 http://www.imdb.com/title/tt7838228/

 

General
Unique ID                   : 277547819586457818471208752001268252551 (0xD0CDC40337AB63F98F4230595EFAFF87)
Complete name               : www.MovCr.com-Chamak (2017) Kannada 720p HDRip x264 AAC ESubs 900MB [MovCr].mkv
Format                      : Matroska
Format version              : Version 4 / Version 2
File size                   : 898 MiB
Duration                    : 2 h 19 min
Overall bit rate            : 903 kb/s
Movie name                  : www.Movcr.com
Encoded date                : UTC 2018-06-08 08:32:49
Writing application         : mkvmerge v23.0.0 ('The Bride Said No') 64-bit
Writing library             : libebml v1.3.6 + libmatroska v1.4.9

Video
ID                          : 1
Format                      : AVC
Format/Info                 : Advanced Video Codec
Format profile              : [email protected]
Format settings, CABAC      : Yes
Format settings, ReFrames   : 4 frames
Codec ID                    : V_MPEG4/ISO/AVC
Duration                    : 2 h 19 min
Bit rate                    : 517 kb/s
Width                       : 1 280 pixels
Height                      : 544 pixels
Display aspect ratio        : 2.35:1
Frame rate mode             : Constant
Frame rate                  : 25.000 FPS
Color space                 : YUV
Chroma subsampling          : 4:2:0
Bit depth                   : 8 bits
Scan type                   : Progressive
Bits/(Pixel*Frame)          : 0.030
Stream size                 : 514 MiB (57%)
Title                       : www.MovCr.com
Writing library             : x264 core 155 r2901 7d0ff22
Encoding settings           : cabac=1 / ref=3 / deblock=1:0:0 / analyse=0x3:0x113 / me=hex / subme=7 / psy=1 / psy_rd=1.00:0.00 / mixed_ref=1 / me_range=16 / chroma_me=1 / trellis=1 / 8x8dct=1 / cqm=0 / deadzone=21,11 / fast_pskip=1 / chroma_qp_offset=-2 / threads=12 / lookahead_threads=2 / sliced_threads=0 / nr=0 / decimate=1 / interlaced=0 / bluray_compat=0 / constrained_intra=0 / bframes=3 / b_pyramid=2 / b_adapt=1 / b_bias=0 / direct=1 / weightb=1 / open_gop=0 / weightp=2 / keyint=250 / keyint_min=25 / scenecut=40 / intra_refresh=0 / rc_lookahead=40 / rc=2pass / mbtree=1 / bitrate=517 / ratetol=1.0 / qcomp=0.60 / qpmin=0 / qpmax=69 / qpstep=4 / cplxblur=20.0 / qblur=0.5 / ip_ratio=1.40 / aq=1:1.00
Default                     : Yes
Forced                      : No

Audio
ID                          : 2
Format                      : AC-3
Format/Info                 : Audio Coding 3
Mode extension              : CM (complete main)
Format settings, Endianness : Big
Codec ID                    : A_AC3
Duration                    : 2 h 19 min
Bit rate mode               : Constant
Bit rate                    : 384 kb/s
Channel(s)                  : 2 channels
Channel positions           : Front: L R
Sampling rate               : 48.0 kHz
Frame rate                  : 31.250 FPS (1536 spf)
Bit depth                   : 16 bits
Compression mode            : Lossy
Stream size                 : 382 MiB (43%)
Title                       : www.MovCr.com
Language                    : Kannada
Default                     : Yes
Forced                      : No

Text
ID                          : 3
Format                      : S_TEXT/WEBVTT
Codec ID                    : S_TEXT/WEBVTT
Duration                    : 2 h 16 min
Bit rate                    : 121 b/s
Count of elements           : 2488
Stream size                 : 122 KiB (0%)
Title                       : www.Movcr.com
Default                     : Yes
Forced                      : No



 
 
 
 
 
 
 
 
Category:Movies > HDRips
Lang:Kannada
Total Size:897.95 MB
Info Hash:817138239d314d22e617a3223667204bf83c4cfd
Added By:MAZE
Date Added:08-06-2018 09:43:29
Views:140
Hits:14

Download Torrent

Ratings:Not Yet Rated (Log in to rate it)


Tracker:
udp://tracker.openbittorrent.com:80/announce

This Torrent also has backup trackers
URLSeedersLeechersCompleted
http://share.camoe.cn:8080/announce000
http://t.nyaatracker.com:80/announce000
http://asnet.pw:2710/announce000
http://tracker.tfile.co:80/announce000
http://pt.lax.mx:80/announce000


File List: 


Comments

No comments still posted

Powered by 10 Hamsters v2-svn -|- Page Generated In 1.439366 secs.
-|- RSS FEED
Theme By: Nikkbu