[Login] or [Signup]
Login
Username:
Password:
[Signup]
[Recover Account]


Poll


You must be logged in to view polls



Torrent Details For "Jurassic World: Fallen Kingdom (2018) English 720p HDCAM-Rip - x264 - 800MB [MovCr]"

Jurassic World: Fallen Kingdom (2018) English 720p HDCAM-Rip - x264 - 800MB [MovCr]

Download this torrent | Magnet Download
Health:
Seeds: 278
Leechers: 542
Completed: 290 
Last Checked: 07-06-2018 10:28:42
External Torrent
Update Stats
Download Magnet


Poster


iMDB
Imdb Picture Title: Jurassic World: Fallen Kingdom
Year: 2018
Runtime: 128 minutes
Votes: 3401
Rating: 7.4/10
Language: English
Country: USA, Spain
All Genres: Action, Adventure, Sci-Fi
Plot Outline: Four years after the Jurassic World theme park was closed down, Owen and Claire return to Isla Nublar to save the dinosaurs when they learn that a once dormant volcano on the island is active and is threatening to extinguish all life there. Along the way, Owen sets out to find Blue, his lead raptor, and discovers a conspiracy that could disrupt the natural order of the entire planet. Life has found a way, again. Written by Jake Logsdon


Tagline: The park is gone
Director: J.A. Bayona
Writing By: Colin Trevorrow,Derek Connolly,Michael Crichton,
Produced By: Belén Atienza,Patrick Crowley,Thomas Hayslip,Frank Marshall,Steven Spielberg,Colin Trevorrow,Thomas Tull,
Music: Michael Giacchino
Cast:
Bryce Dallas Howard as Claire Dearing
Chris Pratt as Owen Grady
Ted Levine as Ken Wheatley
Jeff Goldblum as Ian Malcolm
Toby Jones as Gunnar Eversol
James Cromwell as Benjamin Lockwood
BD Wong as Dr. Henry Wu
Rafe Spall as Eli Mills
Daniella Pineda as Zia Rodriguez
Justice Smith as Franklin
Trailers:
Final Trailer
New Trailer Teaser
Official Trailer #2
Official Trailer
"Run!"


Watch-Free-HD     Download

Details
Name:Jurassic World: Fallen Kingdom (2018) English 720p HDCAM-Rip - x264 - 800MB [MovCr]
Description:
Visit Our Site  www.movcr.com

 http://www.imdb.com/title/tt4881806/

 

General
Unique ID                   : 276276989033612902163621014234995976616 (0xCFD9033A929A07A427481AAA15D169A8)
Complete name               : www.MovCr.com - Jurassic World Fallen Kingdom (2018) English 720p HDCAM-Rip - x264 - 800MB [MovCr].mkv
Format                      : Matroska
Format version              : Version 4 / Version 2
File size                   : 755 MiB
Duration                    : 1 h 58 min
Overall bit rate mode       : Variable
Overall bit rate            : 889 kb/s
Movie name                  : www.MovCr.com
Encoded date                : UTC 2018-06-07 06:55:43
Writing application         : mkvmerge v23.0.0 ('The Bride Said No') 64-bit
Writing library             : libebml v1.3.6 + libmatroska v1.4.9

Video
ID                          : 1
Format                      : AVC
Format/Info                 : Advanced Video Codec
Format profile              : [email protected]
Format settings, CABAC      : Yes
Format settings, ReFrames   : 4 frames
Codec ID                    : V_MPEG4/ISO/AVC
Duration                    : 1 h 58 min
Bit rate                    : 797 kb/s
Width                       : 1 280 pixels
Height                      : 544 pixels
Display aspect ratio        : 2.35:1
Frame rate mode             : Constant
Frame rate                  : 29.970 (29970/1000) FPS
Color space                 : YUV
Chroma subsampling          : 4:2:0
Bit depth                   : 8 bits
Scan type                   : Progressive
Bits/(Pixel*Frame)          : 0.038
Stream size                 : 676 MiB (90%)
Title                       : www.MovCr.com
Language                    : English
Default                     : Yes
Forced                      : No

Audio
ID                          : 2
Format                      : MPEG Audio
Format version              : Version 1
Format profile              : Layer 3
Mode                        : Joint stereo
Mode extension              : MS Stereo
Codec ID                    : A_MPEG/L3
Codec ID/Hint               : MP3
Duration                    : 1 h 58 min
Bit rate mode               : Variable
Bit rate                    : 90.3 kb/s
Channel(s)                  : 2 channels
Sampling rate               : 48.0 kHz
Frame rate                  : 41.667 FPS (1152 spf)
Compression mode            : Lossy
Delay relative to video     : 2 ms
Stream size                 : 76.6 MiB (10%)
Title                       : www.MovCr.com
Language                    : English
Default                     : Yes
Forced                      : No



 
 
 
 
 
 
 
 
Category:Movies > Pre-Releases
Lang:English  English
Total Size:754.61 MB
Info Hash:d62f4070de2362979ae6682ac76cc657bc3db05b
Added By:Unknown
Date Added:07-06-2018 08:10:24
Views:471
Hits:51

Download Torrent

Ratings:Not Yet Rated (Log in to rate it)


Tracker:
udp://tracker.openbittorrent.com:80/announce

This Torrent also has backup trackers
URLSeedersLeechersCompleted
http://share.camoe.cn:8080/announce000
http://t.nyaatracker.com:80/announce12157
http://asnet.pw:2710/announce000
http://tracker.tfile.co:80/announce005
http://pt.lax.mx:80/announce000


File List: 


Comments

No comments still posted

Powered by 10 Hamsters v2-svn -|- Page Generated In 1.715725 secs.
-|- RSS FEED
Theme By: Nikkbu