[Login] or [Signup]
Login
Username:
Password:
[Signup]
[Recover Account]


Poll


You must be logged in to view polls



Torrent Details For "Avengers Infinity War 2018 720p HDTS x264 [MW]"

Avengers Infinity War 2018 720p HDTS x264 [MW]

Download this torrent | Magnet Download
Health:
Seeds: 1,063
Leechers: 2,364
Completed: 1,886 
Last Checked: 23-05-2018 16:33:02
External Torrent
Update Stats
Download Magnet


Poster
No poster


Watch-Free-HD     Download

Details
Name:Avengers Infinity War 2018 720p HDTS x264 [MW]
Description:

 


General
Format                                   : Matroska
Format version                           : Version 4 / Version 2
File size                                : 1.62 GiB
Duration                                 : 2 h 29 min
Overall bit rate                         : 1 557 kb/s

Video
ID                                       : 1
Format                                   : AVC
Format/Info                              : Advanced Video Codec
Format profile                           : [email protected]
Format settings                          : CABAC / 6 Ref Frames
Format settings, CABAC                   : Yes
Format settings, RefFrames               : 6 frames
Codec ID                                 : V_MPEG4/ISO/AVC
Duration                                 : 2 h 29 min
Bit rate                                 : 1 400 kb/s
Width                                    : 1 280 pixels
Height                                   : 592 pixels
Display aspect ratio                     : 2.2:1
Frame rate mode                          : Constant
Frame rate                               : 30.000 FPS
Color space                              : YUV
Chroma subsampling                       : 4:2:0
Bit depth                                : 8 bits
Scan type                                : Progressive
Bits/(Pixel*Frame)                       : 0.062
Stream size                              : 1.49 GiB (92%)
Writing library                          : x264 core 155 r2893 b00bcaf
Default                                  : Yes
Forced                                   : No

Audio
ID                                       : 2
Format                                   : AAC
Format/Info                              : Advanced Audio Codec
Format profile                           : LC
Codec ID                                 : A_AAC-2
Duration                                 : 2 h 29 min
Bit rate                                 : 128 kb/s
Channel(s)                               : 2 channels
Channel positions                        : Front: L R
Sampling rate                            : 48.0 kHz
Frame rate                               : 46.875 FPS (1024 SPF)
Compression mode                         : Lossy
Stream size                              : 137 MiB (8%)
Language                                 : English
Default                                  : Yes
Forced                                   : No



           

Category:Movies > Pre-Releases
Lang:English  English
Total Size:1.62 GB
Info Hash:f6aaa955c842742e7976b6edbd96883de83963c2
Added By:Freaky
Date Added:23-05-2018 12:18:20
Views:1,017
Hits:98

Download Torrent

Ratings:Not Yet Rated (Log in to rate it)


Tracker:
udp://tracker.pirateparty.gr:6969/announce


File List: 


Comments

No comments still posted

Powered by 10 Hamsters v2-svn -|- Page Generated In 0.861068 secs.
-|- RSS FEED
Theme By: Nikkbu