[Login] or [Signup]
Login
Username:
Password:
[Signup]
[Recover Account]


Poll


You must be logged in to view polls



Torrent Details For "Mayurakshi (2017) Bengali Movie - HD Rip[x264 - AAC3(5.1Ch)] - 450 MB"

Mayurakshi (2017) Bengali Movie - HD Rip[x264 - AAC3(5.1Ch)] - 450 MB

Download this torrent | Magnet Download
Health:
Seeds: 45
Leechers: 3
Completed: 51 
Last Checked: 17-05-2018 21:09:08
External Torrent
Update Stats
Download Magnet


Poster


iMDB
Imdb Picture Title: Mayurakshi
Year: 2017
Runtime: 102 minutes
Votes: 40
Rating: 7.2/10
Language: Bengali
Country: India
All Genres: Drama
Plot Outline: MAYURAKSHI narrates an intensely emotional tale of a 84 year old father Sushovan, a brilliant former professor of History, presently suffering from age related neurological problems including dementia and cognitive dysfunction. His middle-aged son Aryanil visits him, an intimately sensitive man going through an unsettling phase in his personal life. Though deeply attached to his father, Aryanil is settled in Chicago,USA, and as such cut off from the soul who shaped his life. Within a five-day span of reunion, lost chapters get curiously reopened and incidents long buried suddenly turn relevant. Few days become more eventful than years and through the process of confrontation with aging and destiny, Aryanil seeks hope and sustenance in his own life. Written by atanu ghosh


Director: Atanu Ghosh
Writing By: Atanu Ghosh,
Produced By: Prabal Halder,Firdausul Hasan,Mita Pal,
Music: Debajyoti Mishra
Cast:
Sudiptaa Chakraborty as Mallika
Prasenjit Chatterjee as Aryanil
Soumitra Chatterjee as Sushovan
Gargi Roy Chowdhury as Paromita
Indrani Haldar as Sahana


Watch-Free-HD     Download

Details
Name:Mayurakshi (2017) Bengali Movie - HD Rip[x264 - AAC3(5.1Ch)] - 450 MB
Description:
Mayurakshi (2017) Bengali Movie -
HD Rip[x264 - AAC3(5.1Ch)] - 450 MB






General
Format                                   : Matroska
Format version                           : Version 2
File size                                : 450 MiB
Duration                                 : 1 h 54 min

Video
ID                                       : 1
Format                                   : AVC
Format/Info                              : Advanced Video Codec
Format profile                           : [email protected]
Format settings                          : CABAC / 4 Ref Frames
Format settings, CABAC                   : Yes
Format settings, RefFrames               : 4 frames
Codec ID                                 : V_MPEG4/ISO/AVC
Duration                                 : 1 h 54 min
Bit rate                                 : 486 kb/s
Width                                    : 560 pixels
Height                                   : 240 pixels
Display aspect ratio                     : 2.35:1
Frame rate mode                          : Constant
Frame rate                               : 25.000 FPS
Color space                              : YUV
Chroma subsampling                       : 4:2:0
Bit depth                                : 8 bits
Scan type                                : Progressive
Bits/(Pixel*Frame)                       : 0.145
Stream size                              : 397 MiB (88%)

Audio
ID                                       : 2
Format                                   : AAC
Format/Info                              : Advanced Audio Codec
Format profile                           : HE-AAC / LC
Format settings                          : Explicit
Codec ID                                 : A_AAC-2
Duration                                 : 1 h 54 min
Bit rate                                 : 63.8 kb/s
Channel(s)                               : 6 channels
Channel positions                        : Front: L C R, Side: L R, LFE
Sampling rate                            : 48.0 kHz
Stream size                              : 52.1 MiB (12%)



Thumbnail




Category:Movies > Bengali
Lang:Bengali  Bengali
Total Size:450.84 MB
Info Hash:825da01fa69da63267279c5b9e3a647b42403cbe
Added By:Pherarim
Date Added:17-05-2018 09:46:46
Views:180
Hits:16

Download Torrent

Ratings:Not Yet Rated (Log in to rate it)

  


Tracker:
udp://tracker.trackerfix.com:80/announce


File List: 


Comments

No comments still posted

Powered by 10 Hamsters v2-svn -|- Page Generated In 1.509224 secs.
-|- RSS FEED
Theme By: Nikkbu