[Login] or [Signup]
Login
Username:
Password:
[Signup]
[Recover Account]


Poll


You must be logged in to view polls



Torrent Details For "Amoli (2018) 1080p WEB DL x264 ESubs [Multi Auds]-[Hindi+Telugu+Tamil+English+Kannada] [MovCR]"

Amoli (2018) 1080p WEB DL x264 ESubs [Multi Auds]-[Hindi+Telugu+Tamil+English+Kannada] [MovCR]

Download this torrent | Magnet Download
Health:
Seeds: 242
Leechers: 358
Completed: 92 
Last Checked: 07-05-2018 15:37:48
External Torrent
Update Stats
Download Magnet


Poster


Watch-Free-HD     Download

Details
Name:Amoli (2018) 1080p WEB DL x264 ESubs [Multi Auds]-[Hindi+Telugu+Tamil+English+Kannada] [MovCR]
Description:
Visit   www.movcr.com

Amoli (2018) 1080p WEB_DL x264 ESubs [Multi Auds]-[Hindi+Telugu+Tamil+English+Kannada] [MovCR]


 

Plot
'Amoli' - Priceless.  A powerful documentary film on the shocking truths about the lesser known business of child sex trade in India.

Threaded together by spine-chilling personal accounts of survivors of the trade, and narrated by Nani in Telugu, the film explores the inner workings of this business that has come to engulf every village and city of our nation.

It all begins with the customer. Customers who demand children. It is estimated that 2.4 to 3.6 million children in India, are currently trapped in this heinous trade because of that demand.
The only way to put an end to this monstrosity is stricter laws, zero tolerance and merciless punishment for these customers.

Genre: Documentary

Languages: Telugu,Tamil,Hindi,Kannada,English

(Tamil) | Narrated by Mr. Kamal Haasan

(Telugu) | Narrated by Nani

(Hindi) | Narrated by Rajkummar Rao

English) | Narrated by Vidya Balan

(Kannada) | Narrated by Puneeth Rajkumar



General
Unique ID                   : 87452202037713698392275784020527331894 (0x41CAAE74356B26EE34462A45C4A2BA36)
Complete name               : D:\www.MovCR.com - Amoli (2018) 1080p WEB_DL x264 ESubs [Multi Auds]-[Hindi+Telugu+Tamil+English+Kannada] [MovCR].mkv
Format                      : Matroska
Format version              : Version 4 / Version 2
File size                   : 356 MiB
Duration                    : 28 min 58 s
Overall bit rate            : 1 720 kb/s
Movie name                  : www.MovCR.com
Encoded date                : UTC 2018-05-07 11:36:39
Writing application         : mkvmerge v22.0.0 ('At The End Of The World') 64-bit
Writing library             : libebml v1.3.5 + libmatroska v1.4.8

Video
ID                          : 1
Format                      : AVC
Format/Info                 : Advanced Video Codec
Format profile              : [email protected]
Format settings, CABAC      : Yes
Format settings, ReFrames   : 3 frames
Codec ID                    : V_MPEG4/ISO/AVC
Duration                    : 28 min 58 s
Bit rate                    : 1 082 kb/s
Width                       : 1 920 pixels
Height                      : 1 012 pixels
Display aspect ratio        : 1.897
Frame rate mode             : Constant
Frame rate                  : 25.000 FPS
Color space                 : YUV
Chroma subsampling          : 4:2:0
Bit depth                   : 8 bits
Scan type                   : Progressive
Bits/(Pixel*Frame)          : 0.022
Stream size                 : 224 MiB (63%)
Title                       : www.MovCR.com
Language                    : Telugu
Default                     : Yes
Forced                      : No
Color range                 : Limited
Color primaries             : BT.709
Transfer characteristics    : BT.709
Matrix coefficients         : BT.709

Audio #1
ID                          : 2
Format                      : AAC
Format/Info                 : Advanced Audio Codec
Format profile              : LC
Codec ID                    : A_AAC
Duration                    : 28 min 58 s
Bit rate                    : 126 kb/s
Channel(s)                  : 2 channels
Channel positions           : Front: L R
Sampling rate               : 44.1 kHz
Frame rate                  : 43.066 FPS (1024 spf)
Compression mode            : Lossy
Delay relative to video     : 82 ms
Stream size                 : 26.0 MiB (7%)
Title                       : www.MovCR.com
Language                    : Telugu
Default                     : Yes
Forced                      : No

Audio #2
ID                          : 3
Format                      : AAC
Format/Info                 : Advanced Audio Codec
Format profile              : LC
Codec ID                    : A_AAC
Duration                    : 28 min 56 s
Bit rate                    : 128 kb/s
Channel(s)                  : 2 channels
Channel positions           : Front: L R
Sampling rate               : 44.1 kHz
Frame rate                  : 43.066 FPS (1024 spf)
Compression mode            : Lossy
Stream size                 : 26.5 MiB (7%)
Title                       : www.MovCR.com
Language                    : Hindi
Default                     : No
Forced                      : No

Audio #3
ID                          : 4
Format                      : AAC
Format/Info                 : Advanced Audio Codec
Format profile              : LC
Codec ID                    : A_AAC
Duration                    : 28 min 58 s
Bit rate                    : 126 kb/s
Channel(s)                  : 2 channels
Channel positions           : Front: L R
Sampling rate               : 44.1 kHz
Frame rate                  : 43.066 FPS (1024 spf)
Compression mode            : Lossy
Delay relative to video     : 58 ms
Stream size                 : 26.0 MiB (7%)
Title                       : www.MovCR.com
Language                    : English
Default                     : No
Forced                      : No

Audio #4
ID                          : 5
Format                      : AAC
Format/Info                 : Advanced Audio Codec
Format profile              : LC
Codec ID                    : A_AAC
Duration                    : 28 min 57 s
Bit rate                    : 126 kb/s
Channel(s)                  : 2 channels
Channel positions           : Front: L R
Sampling rate               : 44.1 kHz
Frame rate                  : 43.066 FPS (1024 spf)
Compression mode            : Lossy
Stream size                 : 26.0 MiB (7%)
Title                       : www.MovCR.com
Language                    : Kannada
Default                     : No
Forced                      : No

Audio #5
ID                          : 7
Format                      : AAC
Format/Info                 : Advanced Audio Codec
Format profile              : LC
Codec ID                    : A_AAC
Duration                    : 28 min 57 s
Bit rate                    : 128 kb/s
Channel(s)                  : 2 channels
Channel positions           : Front: L R
Sampling rate               : 44.1 kHz
Frame rate                  : 43.066 FPS (1024 spf)
Compression mode            : Lossy
Stream size                 : 26.5 MiB (7%)
Title                       : www.MovCR.com
Language                    : Tamil
Default                     : No
Forced                      : No

Text
ID                          : 6
Format                      : UTF-8
Codec ID                    : S_TEXT/UTF8
Codec ID/Info               : UTF-8 Plain Text
Duration                    : 1 min 48 s
Bit rate                    : 98 b/s
Count of elements           : 25
Stream size                 : 1.31 KiB (0%)
Title                       : www.MovCR.com
Language                    : English
Default                     : Yes
Forced                      : No



 
 
 
 
 
 
 
 
 
Category:Movies > WEB-HD
Lang:Hindi
Total Size:356.31 MB
Info Hash:932fc4558d2a139a04ed1e4360ad223169c9428b
Added By:MAZE
Date Added:07-05-2018 12:52:50
Views:348
Hits:28

Download Torrent

Ratings:Not Yet Rated (Log in to rate it)


Tracker:
udp://tracker.openbittorrent.com:80/announce

This Torrent also has backup trackers
URLSeedersLeechersCompleted
http://t.nyaatracker.com:80/announce6141
http://asnet.pw:2710/announce000
http://tracker.tfile.co:80/announce000
http://pt.lax.mx:80/announce000
http://tracker.bt-hash.com:443/announce000
http://grifon.info:80/announce000
http://retracker.spark-rostov.ru:80/announce000
http://tr.kxmp.cf:80/announce000
http://tracker.city9x.com:2710/announce381
http://tracker.tfile.me:80/announce000
http://retracker.telecom.by:80/announce000
http://tracker.electro-torrent.pl:80/announce320
http://open.kickasstracker.com:443/announce560
http://retracker.mgts.by:80/announce561
http://retracker.bashtel.ru:80/announce000
http://tracker.devil-torrents.pl:80/announce000
http://torrentsmd.eu:8080/announce000
http://ns349743.ip-91-121-106.eu:80/announce000
http://torrentsmd.me:8080/announce000
http://agusiq-torrents.pl:6969/announce000
http://fxtt.ru:80/announce000


File List: 


Comments

No comments still posted

Powered by 10 Hamsters v2-svn -|- Page Generated In 1.982933 secs.
-|- RSS FEED
Theme By: Nikkbu