[Login] or [Signup]
Login
Username:
Password:
[Signup]
[Recover Account]


Poll


You must be logged in to view polls



Torrent Details For "102 Not Out 2018 Hindi PRE x264 AAC { TaRa }.mkv"

102 Not Out 2018 Hindi PRE x264 AAC { TaRa }.mkv

Download this torrent | Magnet Download
Health:
Seeds: 2,798
Leechers: 652
Completed: 66,090 
Last Checked: 20-05-2018 16:08:21
External Torrent
Update Stats
Download Magnet


Poster


iMDB
Imdb Picture Title: 102 Not Out
Year: 2018
Runtime: 102 minutes
Votes: 33
Rating: 7.3/10
Language: Hindi
Country: India
All Genres: Comedy
Plot Outline: 102 Not Out is a 2018 comedy-drama film, with legendary actor Amitabh Bachchan playing a 102-year-old wanting to break the oldest-man-alive record. Another Bollywood legend Rishi Kapoor plays his sad and grumpy 75-year-old son.


Director: Umesh Shukla
Writing By: Saumya Joshi,
Produced By: Ashutosh Goswami,
Music: George Joseph Salim-Sulaiman
Cast:
Amitabh Bachchan as Dattatraya Vakharia
Rishi Kapoor as Babulal Vakharia
Jimit Trivedi as
Mukesh Hariawala as
Trailers:
Official '102 Not Out' Trailer
102 Not Out - Teaser


Watch-Free-HD     Download

Details
Name:102 Not Out 2018 Hindi PRE x264 AAC { TaRa }.mkv
Description:

102 Not Out 2018 Hindi PRE x264 AAC { TaRa }.mkv
 

===================================================================
General
Complete name               : 102 Not Out 2018 Hindi PRE x264 AAC { TaRa }.mkv
Format                      : Matroska
Format version              : Version 4 / Version 2
File size                   : 721 MiB
Duration                    : 1 h 37 min
Overall bit rate            : 1 031 kb/s
===================================================================
Video
ID                          : 1
Format                      : AVC
Format/Info                 : Advanced Video Codec
Format profile              : [email protected]
Format settings             : CABAC / 4 Ref Frames
Format settings, CABAC      : Yes
Format settings, ReFrames   : 4 frames
Codec ID                    : V_MPEG4/ISO/AVC
Duration                    : 1 h 37 min
Bit rate                    : 879 kb/s
Width                       : 648 pixels
Height                      : 288 pixels
Display aspect ratio        : 2.25:1
Frame rate mode             : Constant
Frame rate                  : 25.000 FPS
Color space                 : YUV
Chroma subsampling          : 4:2:0
Bit depth                   : 8 bits
Scan type                   : Progressive
Bits/(Pixel*Frame)          : 0.188
Stream size                 : 641 MiB (89%)
Title                       : .....::::: TaRa :::::.....
Language                    : Hindi
Default                     : Yes
Forced                      : No
===================================================================
Audio
ID                          : 2
Format                      : AAC
Format/Info                 : Advanced Audio Codec
Format profile              : LC
Codec ID                    : A_AAC-2
Duration                    : 1 h 37 min
Bit rate                    : 112 kb/s
Channel(s)                  : 2 channels
Channel positions           : Front: L R
Sampling rate               : 44.1 kHz
Frame rate                  : 43.066 FPS (1024 SPF)
Compression mode            : Lossy
Delay relative to video     : -23 ms
Stream size                 : 78.4 MiB (11%)
Title                       : .....::::: TaRa :::::.....
Language                    : Hindi
Default                     : Yes
Forced                      : No
===================================================================


 
 
 
 
 
 











 


Category:Movies > Bollywood
Lang:Hindi
Total Size:721.27 MB
Info Hash:d0c80ed7152e933291c3513d6da4a9d360fc7c8f
Added By:SkTaRa
Date Added:04-05-2018 18:57:46
Views:5,547
Hits:1,503

Download Torrent

Ratings:Not Yet Rated (Log in to rate it)

  


Tracker:
udp://tracker.coppersurfer.tk:6969/announce


File List: 


Comments

No comments still posted

Powered by 10 Hamsters v2-svn -|- Page Generated In 1.627677 secs.
-|- RSS FEED
Theme By: Nikkbu