[Login] or [Signup]
Login
Username:
Password:
[Signup]
[Recover Account]


Poll


You must be logged in to view polls



Torrent Details For "Missing 2018 Hindi 720p PreDVDRip x264 AAC [MW]"

Missing 2018 Hindi 720p PreDVDRip x264 AAC [MW]

Download this torrent | Magnet Download
Health:
Seeds: 603
Leechers: 673
Completed: 1,129 
Last Checked: 16-04-2018 08:46:20
External Torrent
Update Stats
Download Magnet


Poster
No poster


Watch-Free-HD     Download

Details
Name:Missing 2018 Hindi 720p PreDVDRip x264 AAC [MW]
Description:

 


General
Format                                   : Matroska
Format version                           : Version 4 / Version 2
File size                                : 928 MiB
Duration                                 : 1 h 47 min
Overall bit rate                         : 1 203 kb/s

Video
ID                                       : 1
Format                                   : AVC
Format/Info                              : Advanced Video Codec
Format profile                           : [email protected]
Format settings                          : CABAC / 4 Ref Frames
Format settings, CABAC                   : Yes
Format settings, RefFrames               : 4 frames
Codec ID                                 : V_MPEG4/ISO/AVC
Duration                                 : 1 h 47 min
Bit rate                                 : 1 100 kb/s
Width                                    : 1 280 pixels
Height                                   : 608 pixels
Display aspect ratio                     : 2.105
Frame rate mode                          : Constant
Frame rate                               : 25.000 FPS
Color space                              : YUV
Chroma subsampling                       : 4:2:0
Bit depth                                : 8 bits
Scan type                                : Progressive
Bits/(Pixel*Frame)                       : 0.057
Stream size                              : 852 MiB (92%)
Writing library                          : x264 core 155 r2893 b00bcaf
Default                                  : Yes
Forced                                   : No

Audio
ID                                       : 2
Format                                   : AAC
Format/Info                              : Advanced Audio Codec
Format profile                           : LC
Codec ID                                 : A_AAC-2
Duration                                 : 1 h 47 min
Bit rate                                 : 96.0 kb/s
Channel(s)                               : 2 channels
Channel positions                        : Front: L R
Sampling rate                            : 48.0 kHz
Frame rate                               : 46.875 FPS (1024 SPF)
Compression mode                         : Lossy
Stream size                              : 74.1 MiB (8%)
Default                                  : Yes
Forced                                   : No





           


Category:Movies > Bollywood
Lang:Hindi
Total Size:928.17 MB
Info Hash:e48918c51cd98b9d073af2201914d4d7e5f925fb
Added By:Freaky
Date Added:15-04-2018 15:56:04
Views:1,032
Hits:43

Download Torrent

Ratings:Not Yet Rated (Log in to rate it)


Tracker:
udp://tracker.pirateparty.gr:6969/announce

This Torrent also has backup trackers
URLSeedersLeechersCompleted
http://tracker.vanitycore.co:6969/announce4154111
http://public.popcorn-tracker.org:6969/announce545966


File List: 


Comments

No comments still posted

Powered by 10 Hamsters v2-svn -|- Page Generated In 3.705457 secs.
-|- RSS Feed -|- Feed Info
Theme By: Nikkbu