[Login] or [Signup]
Login
Username:
Password:
[Signup]
[Recover Account]


Poll


You must be logged in to view polls



Torrent Details For "Missing (2018) Hindi Movie Pre-DvDRip x264 AAC [MovCR]"

Missing (2018) Hindi Movie Pre-DvDRip x264 AAC [MovCR]

Download this torrent | Magnet Download
Health:
Seeds: 226
Leechers: 116
Completed: 892 
Last Checked: 15-04-2018 22:04:38
External Torrent
Update Stats
Download Magnet


Poster


iMDB
Imdb Picture Title: Missing
Year: 2018
Runtime: 120 minutes
Votes: 59
Rating: 7.7/10
Language: Hindi
Country: India
All Genres: Drama, Thriller
Plot Outline: Sushant Dubey checks in at a beach resort of Mauritius late night with his lovely wife Aparna and three-year-old daughter, Titli, who has high fever. As Aparna wakes up the next morning, ...
Director: Mukul Abhyankar
Writing By: Mukul Abhyankar,
Produced By: Manoj Bajpayee,Shabana Raza Bajpayee,Shital Bhatia,Vikram Malhotra,Neeraj Pandey,Anand Pandit,
Music: M.M. Keeravani
Cast:
Manoj Bajpayee as Mr. Dubey
Shruti Gupta as Receptionist
Annu Kapoor as Inspector Buddhu
Tabu as Mrs. Dubey


Watch-Free-HD     Download

Details
Name:Missing (2018) Hindi Movie Pre-DvDRip x264 AAC [MovCR]
Description:
Visit   www.movcr.com

Missing (2018) Hindi Pre-DvDRip x264 AAC [MovCR]


 http://www.imdb.com/title/tt7384848/

 

General
Complete name                            : [www.MovCR.com] Missing (2018) Hindi Pre-DvDRip x264 AAC [MovCR]\www.MovCR.com - Missing (2018) Hindi Pre-DvDRip x264 AAC [MovCR].mkv
Format                                   : Matroska
Format version                           : Version 4 / Version 2
File size                                : 702 MiB
Duration                                 : 1 h 47 min
Overall bit rate                         : 910 kb/s
Movie name                               : www.MovCR.com / CineVood.Net
Encoded date                             : UTC 2018-04-15 09:05:22
Writing application                      : mkvmerge v9.5.0 ('Quiet Fire') 64bit
Writing library                          : libebml v1.3.4 + libmatroska v1.4.5

Video
ID                                       : 1
Format                                   : AVC
Format/Info                              : Advanced Video Codec
Format profile                           : [email protected]
Format settings                          : CABAC / 4 Ref Frames
Format settings, CABAC                   : Yes
Format settings, RefFrames               : 4 frames
Codec ID                                 : V_MPEG4/ISO/AVC
Duration                                 : 1 h 47 min
Bit rate                                 : 744 kb/s
Width                                    : 640 pixels
Height                                   : 272 pixels
Display aspect ratio                     : 2.35:1
Frame rate mode                          : Constant
Frame rate                               : 25.000 FPS
Color space                              : YUV
Chroma subsampling                       : 4:2:0
Bit depth                                : 8 bits
Scan type                                : Progressive
Bits/(Pixel*Frame)                       : 0.171
Stream size                              : 577 MiB (82%)
Title                                    : www.MovCR.com
Writing library                          : x264 core 112
Encoding settings                        : cabac=1 / ref=2 / deblock=1:0:0 / analyse=0x1:0x111 / me=hex / subme=6 / psy=1 / psy_rd=1.00:0.00 / mixed_ref=0 / me_range=16 / chroma_me=1 / trellis=0 / 8x8dct=0 / cqm=0 / deadzone=21,11 / fast_pskip=1 / chroma_qp_offset=-2 / threads=12 / sliced_threads=0 / nr=0 / decimate=1 / interlaced=0 / constrained_intra=0 / bframes=2 / b_pyramid=2 / b_adapt=1 / b_bias=0 / direct=1 / weightb=0 / open_gop=0 / weightp=2 / keyint=250 / keyint_min=25 / scenecut=40 / intra_refresh=0 / rc_lookahead=40 / rc=abr / mbtree=1 / bitrate=744 / ratetol=1.0 / qcomp=0.60 / qpmin=3 / qpmax=51 / qpstep=4 / ip_ratio=1.40 / aq=1:1.00
Language                                 : English
Default                                  : Yes
Forced                                   : No
Color range                              : Limited
Color primaries                          : BT.601 NTSC
Transfer characteristics                 : BT.709
Matrix coefficients                      : BT.601

Audio
ID                                       : 2
Format                                   : AAC
Format/Info                              : Advanced Audio Codec
Format profile                           : LC
Codec ID                                 : A_AAC-2
Duration                                 : 1 h 47 min
Bit rate                                 : 160 kb/s
Channel(s)                               : 2 channels
Channel positions                        : Front: L R
Sampling rate                            : 44.1 kHz
Frame rate                               : 43.066 FPS (1024 SPF)
Compression mode                         : Lossy
Stream size                              : 123 MiB (18%)
Title                                    : www.MovCR.com
Default                                  : Yes
Forced                                   : No



           

Category:Movies > Bollywood
Lang:Hindi
Total Size:701.96 MB
Info Hash:902e5669f41d493f5fa958ea2711736f03649d48
Added By:MAZE
Date Added:15-04-2018 10:13:14
Views:808
Hits:59

Download Torrent

Ratings:Not Yet Rated (Log in to rate it)


Tracker:
udp://tracker.openbittorrent.com:80/announce

This Torrent also has backup trackers
URLSeedersLeechersCompleted
http://tracker2.itzmx.com:6961/announce000
http://tracker.vanitycore.co:6969/announce4315
http://tracker.torrentyorg.pl:80/announce319
http://tracker.tfile.me:80/announce000
http://tracker.mg64.net:6881/announce000
http://tracker.electro-torrent.pl:80/announce000
http://torrentsmd.me:8080/announce000
http://share.camoe.cn:8080/announce000
http://servandroidkino.ru:80/announce429
http://p4p.arenabg.com:1337/announce000
http://open.acgtracker.com:1096/announce000
http://omg.wtftrackr.pw:1337/announce000
http://mgtracker.org:6969/announce5111
http://bt.dl1234.com:80/announce218
http://agusiq-torrents.pl:6969/announce4314
http://104.238.198.186:8000/announce2311101


File List: 


Comments

No comments still posted

Powered by 10 Hamsters v2-svn -|- Page Generated In 0.988678 secs.
-|- RSS Feed -|- Feed Info
Theme By: Nikkbu