[Login] or [Signup]
Login
Username:
Password:
[Signup]
[Recover Account]


Poll


You must be logged in to view polls



Torrent Details For "Eken Babu (Bengali) - Detective Web Series Rip [Mp4 - AAC3(2Ch)] - 853 MB"

Eken Babu (Bengali) - Detective Web Series Rip [Mp4 - AAC3(2Ch)] - 853 MB

Download this torrent | Magnet Download
Health:
Seeds: 33
Leechers: 0
Completed:
Last Checked: 15-04-2018 06:16:56
External Torrent
Update Stats
Download Magnet


Poster


Watch-Free-HD     Download

Details
Name:Eken Babu (Bengali) - Detective Web Series Rip [Mp4 - AAC3(2Ch)] - 853 MB
Description:
Eken Babu (Bengali) - Detective Web Series Rip
[Mp4 - AAC3(2Ch)] - 853 MB
 






General
Complete name                            : H:\.mp4
Format                                   : MPEG-4
Format profile                           : Base Media
Codec ID                                 : isom (isom)
File size                                : 854 MiB
Duration                                 : 3 h 26 min

Video
ID                                       : 1
Format                                   : AVC
Format/Info                              : Advanced Video Codec
Format profile                           : [email protected]
Format settings                          : CABAC / 4 Ref Frames
Format settings, CABAC                   : Yes
Format settings, RefFrames               : 4 frames
Codec ID                                 : avc1
Codec ID/Info                            : Advanced Video Coding
Duration                                 : 3 h 26 min
Bit rate                                 : 510 kb/s
Maximum bit rate                         : 3 768 kb/s
Width                                    : 640 pixels
Height                                   : 352 pixels
Display aspect ratio                     : 16:9
Frame rate mode                          : Constant
Frame rate                               : 25.000 FPS
Color space                              : YUV
Chroma subsampling                       : 4:2:0
Bit depth                                : 8 bits
Scan type                                : Progressive
Bits/(Pixel*Frame)                       : 0.091
Stream size                              : 754 MiB (88%)

Audio
ID                                       : 2
Format                                   : AAC
Format/Info                              : Advanced Audio Codec
Format profile                           : HE-AAC / LC
Format settings                          : Explicit
Codec ID                                 : mp4a-40-2
Duration                                 : 3 h 26 min
Bit rate mode                            : Variable
Bit rate                                 : 64.0 kb/s
Maximum bit rate                         : 71.9 kb/s
Channel(s)                               : 2 channels
Channel positions                        : Front: L R
Sampling rate                            : 48.0 kHz / 24.0 kHz
Stream size                              : 94.6 MiB (11%)      

Thumbnail




Category:Movies > Bengali
Lang:Bengali  Bengali
Total Size:853.56 MB
Info Hash:24ef895a634293688ac17ad3320fce7ff181ec59
Added By:Pherarim
Date Added:15-04-2018 06:11:22
Views:143
Hits:29

Download Torrent

Ratings:Not Yet Rated (Log in to rate it)

  


Tracker:
http://tracker.trackerfix.com:80/announce


File List: 


Comments

No comments still posted

Powered by 10 Hamsters v2-svn -|- Page Generated In 0.737595 secs.
-|- RSS Feed -|- Feed Info
Theme By: Nikkbu