[Login] or [Signup]
Login
Username:
Password:
[Signup]
[Recover Account]


Poll


You must be logged in to view polls



Torrent Details For "Mukkabaaz 2018 HD 720p Hindi GOPISAHI"

Mukkabaaz 2018 HD 720p Hindi GOPISAHI

Download this torrent | Magnet Download
Health:
Seeds: 18
Leechers: 15
Completed:
Last Checked: 15-04-2018 04:12:14
External Torrent
Update Stats
Download Magnet


Poster


iMDB
Imdb Picture Original Title: Mukkabaaz
Title: The Brawler
Year: 2017
Runtime: 154 minutes
Votes: 1097
Rating: 8.5/10
Language: Hindi
Country: India
All Genres: Action, Drama, Sport
Plot Outline: A lower caste boxer struggles to make his mark on the boxing world.
Director: Anurag Kashyap
Writing By: Ranjan Chandel,Anurag Kashyap,Prasoon Mishra,Singh Srinet Mukti,K.D. Satyam,Vineet Kumar Singh,
Produced By: Vishesh Agrawal,Anurag Kashyap,Madhu Mantena Varma,Vikramaditya Motwane,Ajay Rai,Anand L. Rai,
Music: Rachita Arora
Cast:
Vineet Kumar Singh as Shravan
Zoya Hussain as Sunaina
Ravi Kishan as Sanjay Kumar
Jimmy Shergill as Bhagwan
Rajesh Tailang as Vijay Singh
Shreedhar Dubey as Gopal Tiwari
Trailers:
Mukkabaaz Trailer


Watch-Free-HD     Download

Details
Name:Mukkabaaz 2018 HD 720p Hindi GOPISAHI
Description:

Format                         : Matroska
Format version                 : Version 4 / Version 2
File size                      : 656 MiB
Duration                       : 2 h 35 min
Overall bit rate               : 590 kb/s
Movie name                     : Mukkabaaz 2018 GOPISAHI

Video
Format                         : AVC
Codec ID                       : V_MPEG4/ISO/AVC
Duration                       : 2 h 35 min
Bit rate                       : 500 kb/s
Width                          : 1 280 pixels
Height                         : 544 pixels
Display aspect ratio           : 2.35:1
Frame rate mode                : Constant
Frame rate                     : 24.000 FPS
Stream size                    : 556 MiB (85%)
Title                          : GOPISAHI
Writing library                : x264 core 155 r2893 b00bcaf

Audio
Format                         : AAC
Duration                       : 2 h 35 min
Bit rate                       : 88.6 kb/s
Channel(s)                     : 6 channels
Channel positions              : Front: L C R, Side: L R, LFE
Sampling rate                  : 44.1 kHz
Frame rate                     : 43.066 FPS (1024 SPF)
Compression mode               : Lossy
Stream size                    : 98.5 MiB (15%)
Title                          : GOPISAHI
Language                       : Hindi


``
Category:Movies > Bollywood
Lang:Hindi
Total Size:656.36 MB
Info Hash:5b714d2510c2013a2eed471f490c60b3af6c5485
Added By:gopisahi
Date Added:15-04-2018 03:47:40
Views:276
Hits:57

Download Torrent

Ratings:Not Yet Rated (Log in to rate it)


Tracker:
udp://9.rarbg.com:2740/announce


File List: 


Comments

No comments still posted

Powered by 10 Hamsters v2-svn -|- Page Generated In 0.299903 secs.
-|- RSS Feed -|- Feed Info
Theme By: Nikkbu