[Login] or [Signup]
Login
Username:
Password:
[Signup]
[Recover Account]


Poll


You must be logged in to view polls



Torrent Details For "+18 Jisam Ki Aag - Bengali Movie - HDRip[x264 AAC3(2Ch)] - 462 MB"

+18 Jisam Ki Aag - Bengali Movie - HDRip[x264 AAC3(2Ch)] - 462 MB

Download this torrent | Magnet Download
Health:
Seeds: 36
Leechers: 0
Completed: 49 
Last Checked: 15-04-2018 06:28:54
External Torrent
Update Stats
Download Magnet


Poster


Watch-Free-HD     Download

Details
Name:+18 Jisam Ki Aag - Bengali Movie - HDRip[x264 AAC3(2Ch)] - 462 MB
Description:
+18 Jisam Ki Aag - Bengali Movie -
HDRip[x264 AAC3(2Ch)] - 462 MB
 





General
Format                                   : Matroska
Format version                           : Version 2
File size                                : 463 MiB
Duration                                 : 1 h 54 min


Video
ID                                       : 1
Format                                   : AVC
Format/Info                              : Advanced Video Codec
Format profile                           : [email protected]
Format settings                          : CABAC / 4 Ref Frames
Format settings, CABAC                   : Yes
Format settings, RefFrames               : 4 frames
Codec ID                                 : V_MPEG4/ISO/AVC
Duration                                 : 1 h 54 min
Bit rate                                 : 500 kb/s
Width                                    : 560 pixels
Height                                   : 240 pixels
Display aspect ratio                     : 2.35:1
Frame rate mode                          : Constant
Frame rate                               : 25.000 FPS
Color space                              : YUV
Chroma subsampling                       : 4:2:0
Bit depth                                : 8 bits
Scan type                                : Progressive
Bits/(Pixel*Frame)                       : 0.149
Stream size                              : 409 MiB (88%)

Audio
ID                                       : 2
Format                                   : AAC
Format/Info                              : Advanced Audio Codec
Format profile                           : HE-AAC / LC
Format settings                          : Explicit
Codec ID                                 : A_AAC-2
Duration                                 : 1 h 54 min
Bit rate                                 : 64.0 kb/s
Channel(s)                               : 2 channels
Channel positions                        : Front: L R
Sampling rate                            : 48.0 kHz
Stream size                              : 52.3 MiB (11%)    


Thumbnail





Category:Movies > Bengali
Lang:Bengali  Bengali
Total Size:462.81 MB
Info Hash:6e2d375935512f6c728afea47388f9811de14f11
Added By:Pherarim
Date Added:14-04-2018 11:56:01
Views:781
Hits:66

Download Torrent

Ratings:Not Yet Rated (Log in to rate it)

  


Tracker:
udp://9.rarbg.me:2710/announce


File List: 


Comments

No comments still posted

Powered by 10 Hamsters v2-svn -|- Page Generated In 0.721961 secs.
-|- RSS Feed -|- Feed Info
Theme By: Nikkbu