[Login] or [Signup]
Login
Username:
Password:
[Signup]
[Recover Account]


Poll


You must be logged in to view polls



Torrent Details For "Sesh Sangbad (Bangla Cinema) - 1CD - HD Rip[x264 - AAC3(2Ch)]"

Sesh Sangbad (Bangla Cinema) - 1CD - HD Rip[x264 - AAC3(2Ch)]

Download this torrent | Magnet Download
Health:
Seeds: 48
Leechers: 1
Completed: 21 
Last Checked: 15-04-2018 06:58:33
External Torrent
Update Stats
Download Magnet


Poster


Watch-Free-HD     Download

Details
Name:Sesh Sangbad (Bangla Cinema) - 1CD - HD Rip[x264 - AAC3(2Ch)]
Description:
Sesh Sangbad (Bangla Cinema) - 1CD -
HD Rip[x264 - AAC3(2Ch)]
 






General
Format                                   : Matroska
Format version                           : Version 2
File size                                : 700 MiB
Duration                                 : 2 h 23 min

Video
ID                                       : 1
Format                                   : AVC
Format/Info                              : Advanced Video Codec
Format profile                           : [email protected]
Format settings                          : CABAC / 4 Ref Frames
Format settings, CABAC                   : Yes
Format settings, RefFrames               : 4 frames
Codec ID                                 : V_MPEG4/ISO/AVC
Duration                                 : 2 h 23 min
Bit rate                                 : 602 kb/s
Width                                    : 640 pixels
Height                                   : 272 pixels
Display aspect ratio                     : 2.35:1
Frame rate mode                          : Constant
Frame rate                               : 25.000 FPS
Color space                              : YUV
Chroma subsampling                       : 4:2:0
Bit depth                                : 8 bits
Scan type                                : Progressive
Bits/(Pixel*Frame)                       : 0.138
Stream size                              : 616 MiB (88%)

Audio
ID                                       : 2
Format                                   : AAC
Format/Info                              : Advanced Audio Codec
Format profile                           : HE-AAC / LC
Format settings                          : Explicit
Codec ID                                 : A_AAC-2
Duration                                 : 2 h 23 min
Bit rate                                 : 80.0 kb/s
Channel(s)                               : 2 channels
Channel positions                        : Front: L R
Sampling rate                            : 48.0 kHz / 24.0 kHz
Stream size                              : 81.9 MiB (12%)    

Thumbnail




Category:Movies > Bengali
Lang:Bengali  Bengali
Total Size:699.80 MB
Info Hash:2b0b65cb08160ba94b3254e18d8999bc66ae2952
Added By:Pherarim
Date Added:14-04-2018 11:12:32
Views:194
Hits:43

Download Torrent

Ratings:Not Yet Rated (Log in to rate it)

  


Tracker:
udp://9.rarbg.me:2710/announce


File List: 


Comments

No comments still posted

Powered by 10 Hamsters v2-svn -|- Page Generated In 1.503481 secs.
-|- RSS FEED
Theme By: Nikkbu