[Login] or [Signup]
Login
Username:
Password:
[Signup]
[Recover Account]


Poll


You must be logged in to view polls



Torrent Details For "Killing Season 2013 720p Esub BluRay Dual Audio English Hindi GOPISAHI"

Killing Season 2013 720p Esub BluRay Dual Audio English Hindi GOPISAHI

Download this torrent | Magnet Download
Health:
Seeds: 0
Leechers: 0
Completed:
Last Checked: 14-04-2018 03:03:27
External Torrent
Update Stats
Download Magnet


Poster


iMDB
Imdb Picture Title: Killing Season
Year: 2013
Runtime: 91 minutes
Votes: 31624
Rating: 5.4/10
Language: English, Serbian
Country: USA, Belgium, Bulgaria
All Genres: Action, Drama, Thriller
Plot Outline: Two veterans of the Bosnian War, one American, one Serbian, find their unlikely friendship tested when one of them reveals their true intentions.
Tagline: The purest form of war is one on one.
Director: Mark Steven Johnson
Writing By: Evan Daugherty,
Produced By: Paul Breuls,Ed Cathell III,Boaz Davidson,Danny Dimbort,Anson Downes,Linda Favila,Veronique Huyghebaert,Avi Lerner,Danny Lerner,Anthony Rhulen,Guy Tannahill,John Thompson,Emelie Vervecken,Jake Wagner,
Music: Christopher Young
Cast:
Robert De Niro as Benjamin Ford
John Travolta as Emil Kovac
Milo Ventimiglia as Chris Ford
Elizabeth Olin as Sarah Ford
Diana Lyubenova as Elena
Kalin Sarmenov as Serbian
Stefan Shterev as Bar Customer
Joseph Oliveira as Serbian Soldier
Trailers:
Theatrical Trailer


Watch-Free-HD     Download

Details
Name:Killing Season 2013 720p Esub BluRay Dual Audio English Hindi GOPISAHI
Description:

Format                         : Matroska

Format version                 : Version 4 / Version 2

File size                      : 501 MiB

Duration                       : 1 h 30 min

Overall bit rate               : 772 kb/s

Movie name                     : Killing Season 2013 GOPISAHI


Video

Format                         : AVC

Codec ID                       : V_MPEG4/ISO/AVC

Duration                       : 1 h 30 min

Bit rate                       : 600 kb/s

Width                          : 1 280 pixels

Height                         : 720 pixels

Display aspect ratio           : 16:9

Frame rate mode                : Constant

Frame rate                     : 23.976 (24000/1001) FPS

Stream size                    : 389 MiB (78%)

Title                          : GOPISAHI

Writing library                : x264 core 155 r2893 b00bcaf


Audio #1

Format                         : AAC

Duration                       : 1 h 30 min

Bit rate                       : 84.5 kb/s

Channel(s)                     : 6 channels

Channel positions              : Front: L C R, Side: L R, LFE

Sampling rate                  : 44.1 kHz

Frame rate                     : 43.066 FPS (1024 SPF)

Compression mode               : Lossy

Stream size                    : 54.9 MiB (11%)

Title                          : GOPISAHI

Language                       : Hindi


Audio #2

Format                         : AAC

Duration                       : 1 h 30 min

Bit rate                       : 84.5 kb/s

Channel(s)                     : 6 channels

Channel positions              : Front: L C R, Side: L R, LFE

Sampling rate                  : 44.1 kHz

Frame rate                     : 43.066 FPS (1024 SPF)

Compression mode               : Lossy

Stream size                    : 54.9 MiB (11%)

Title                          : GOPISAHI

Language                       : English


Text

Language                       : English


Category:Movies > Hollywood Dub
Lang:Hindi
Total Size:501.01 MB
Info Hash:fa78183978707a03dcd955a40684eb2fe93c8bde
Added By:gopisahi
Date Added:14-04-2018 03:03:27
Views:611
Hits:42

Download Torrent

Ratings:Not Yet Rated (Log in to rate it)


Tracker:
udp://9.rarbg.com:2740/announce


File List: 


Comments

No comments still posted

Powered by 10 Hamsters v2-svn -|- Page Generated In 0.283786 secs.
-|- RSS FEED
Theme By: Nikkbu