[Login] or [Signup]
Login
Username:
Password:
[Signup]
[Recover Account]


Poll


You must be logged in to view polls



Torrent Details For "Kill 'em All 2013 720p Esub BluRay Dual Audio English Hindi GOPISAHI"

Kill 'em All 2013 720p Esub BluRay Dual Audio English Hindi GOPISAHI

Download this torrent | Magnet Download
Health:
Seeds: 0
Leechers: 0
Completed:
Last Checked: 14-04-2018 02:54:31
External Torrent
Update Stats
Download Magnet


Poster


iMDB
Imdb Picture Title: Kill 'em All
Year: 2012
Runtime: 86 minutes
Votes: 1250
Rating: 4.4/10
Language: English
Country: USA
All Genres: Action, Crime, Thriller
Plot Outline: Captured international assassins are locked up inside a high-tech bunker known as the Killing Chamber. To break out of this concrete hell they must duel each other, fight deadly ninjas and ...
Tagline: I'm going to hell when I die.
Director: Raimund Huber
Writing By: Ken Miller,
Produced By: Shaked Berenson,Patrick Ewald,Sarah Gyldenvand,Sunny Promyotin,George Tan,Chariyawan Tavoranon,Klaus von Sayn-Wittgenstein,
Music: Alec Puro
Cast:
Johnny Messner as Gabriel
Chia-Hui Liu as Snakehead
Ammara Siripong as Som
Joe Lewis as Carpenter
Brahim Achabbakhe as Takab
Tim Man as The Kid
Roongtawan Jindasing as
Rashid Phoenix as Mickey
Erik Markus Schuetz as Schmidt
Eoin O'Brien as Buzz
Trailers:
Kill 'em All


Watch-Free-HD     Download

Details
Name:Kill 'em All 2013 720p Esub BluRay Dual Audio English Hindi GOPISAHI
Description:

Format                         : Matroska

Format version                 : Version 4 / Version 2

File size                      : 474 MiB

Duration                       : 1 h 25 min

Overall bit rate               : 772 kb/s

Movie name                     : Kill 'em All 2013 GOPISAHI


Video

Format                         : AVC

Codec ID                       : V_MPEG4/ISO/AVC

Duration                       : 1 h 25 min

Bit rate                       : 600 kb/s

Width                          : 1 280 pixels

Height                         : 720 pixels

Display aspect ratio           : 16:9

Frame rate mode                : Constant

Frame rate                     : 23.976 (24000/1001) FPS

Stream size                    : 368 MiB (78%)

Title                          : GOPISAHI

Writing library                : x264 core 155 r2893 b00bcaf


Audio #1

Format                         : AAC

Duration                       : 1 h 25 min

Bit rate                       : 86.1 kb/s

Channel(s)                     : 6 channels

Channel positions              : Front: L C R, Side: L R, LFE

Sampling rate                  : 44.1 kHz

Frame rate                     : 43.066 FPS (1024 SPF)

Compression mode               : Lossy

Stream size                    : 52.9 MiB (11%)

Title                          : GOPISAHI

Language                       : Hindi


Audio #2

Format                         : AAC

Duration                       : 1 h 25 min

Bit rate                       : 84.0 kb/s

Channel(s)                     : 6 channels

Channel positions              : Front: L C R, Side: L R, LFE

Sampling rate                  : 44.1 kHz

Frame rate                     : 43.066 FPS (1024 SPF)

Compression mode               : Lossy

Stream size                    : 51.6 MiB (11%)

Title                          : GOPISAHI

Language                       : English


Text

Language                       : English


Category:Movies > Hollywood Dub
Lang:Hindi
Total Size:474.17 MB
Info Hash:b0d9093762f0edd1b3967c80d0f99ef35202bff5
Added By:gopisahi
Date Added:14-04-2018 02:54:31
Views:513
Hits:41

Download Torrent

Ratings:Not Yet Rated (Log in to rate it)


Tracker:
udp://9.rarbg.com:2740/announce


File List: 


Comments

No comments still posted

Powered by 10 Hamsters v2-svn -|- Page Generated In 0.274648 secs.
-|- RSS FEED
Theme By: Nikkbu