[Login] or [Signup]
Login
Username:
Password:
[Signup]
[Recover Account]


Poll


You must be logged in to view polls



Torrent Details For "Mukkabaaz (2017) HDRip 720p Hindi H.264 ACC - LatestHDMovies"

Mukkabaaz (2017) HDRip 720p Hindi H.264 ACC - LatestHDMovies

Download this torrent | Magnet Download
Health:
Seeds: 10
Leechers: 31
Completed:
Last Checked: 14-04-2018 02:05:22
External Torrent
Update Stats
Download Magnet


Poster


iMDB
Imdb Picture Original Title: Mukkabaaz
Title: The Brawler
Year: 2017
Runtime: 154 minutes
Votes: 1097
Rating: 8.5/10
Language: Hindi
Country: India
All Genres: Action, Drama, Sport
Plot Outline: A lower caste boxer struggles to make his mark on the boxing world.
Director: Anurag Kashyap
Writing By: Ranjan Chandel,Anurag Kashyap,Prasoon Mishra,Singh Srinet Mukti,K.D. Satyam,Vineet Kumar Singh,
Produced By: Vishesh Agrawal,Anurag Kashyap,Madhu Mantena Varma,Vikramaditya Motwane,Ajay Rai,Anand L. Rai,
Music: Rachita Arora
Cast:
Vineet Kumar Singh as Shravan
Zoya Hussain as Sunaina
Ravi Kishan as Sanjay Kumar
Jimmy Shergill as Bhagwan
Rajesh Tailang as Vijay Singh
Shreedhar Dubey as Gopal Tiwari
Trailers:
Mukkabaaz Trailer


Watch-Free-HD     Download

Details
Name:Mukkabaaz (2017) HDRip 720p Hindi H.264 ACC - LatestHDMovies
Description:




[[>>SAMPLE<<]]
 http://openload.co/f/qwQHqMKi...es___TeamSHAHID-.mp4








General
Unique ID                   : 99541125923492012733191069691096362385 (0x4AE2EC6B3E5C2F8998AA5D8905F86D91)
Complete name               : C:\Users\SHAHID\Downloads\Video\Mukkabaaz (2017) HDRip 720p Hindi H.264 ACC - LatestHDMovies.mkv
Format                      : Matroska
Format version              : Version 4 / Version 2
File size                   : 1.32 GiB
Duration                    : 2 h 35 min
Overall bit rate            : 1 212 kb/s
Movie name                  : LatestHDMovies | TeamSHAHID
Encoded date                : UTC 2018-04-14 00:17:55
Writing application         : mkvmerge v21.0.0 ('Tardigrades Will Inherit The Earth') 32-bit
Writing library             : libebml v1.3.5 + libmatroska v1.4.8
Cover                       : Yes
Attachments                 : COVER.jpg

Video
ID                          : 1
Format                      : AVC
Format/Info                 : Advanced Video Codec
Format profile              : [email protected]
Format settings             : CABAC / 5 Ref Frames
Format settings, CABAC      : Yes
Format settings, ReFrames   : 5 frames
Codec ID                    : V_MPEG4/ISO/AVC
Duration                    : 2 h 35 min
Bit rate                    : 1 088 kb/s
Width                       : 1 280 pixels
Height                      : 544 pixels
Display aspect ratio        : 2.35:1
Frame rate mode             : Constant
Frame rate                  : 24.000 FPS
Color space                 : YUV
Chroma subsampling          : 4:2:0
Bit depth                   : 8 bits
Scan type                   : Progressive
Bits/(Pixel*Frame)          : 0.065
Stream size                 : 1.18 GiB (89%)
Title                       : LatestHDMovies - TeamSHAHID
Writing library             : x264 core 148 r2643 5c65704
Encoding settings           : cabac=1 / ref=5 / deblock=1:0:0 / analyse=0x3:0x113 / me=hex / subme=7 / psy=1 / psy_rd=1.00:0.00 / mixed_ref=1 / me_range=16 / chroma_me=1 / trellis=1 / 8x8dct=1 / cqm=0 / deadzone=21,11 / fast_pskip=1 / chroma_qp_offset=-2 / threads=8 / lookahead_threads=8 / sliced_threads=1 / slices=8 / nr=0 / decimate=1 / interlaced=0 / bluray_compat=0 / constrained_intra=0 / bframes=0 / weightp=2 / keyint=250 / keyint_min=24 / scenecut=40 / intra_refresh=0 / rc=abr / mbtree=0 / bitrate=1088 / ratetol=1.0 / qcomp=0.60 / qpmin=0 / qpmax=69 / qpstep=4 / ip_ratio=1.40 / aq=1:1.00
Language                    : Hindi
Default                     : Yes
Forced                      : No

Audio
ID                          : 2
Format                      : AAC
Format/Info                 : Advanced Audio Codec
Format profile              : LC
Codec ID                    : A_AAC-2
Duration                    : 2 h 35 min
Bit rate                    : 127 kb/s
Channel(s)                  : 2 channels
Channel positions           : Front: L R
Sampling rate               : 48.0 kHz
Frame rate                  : 46.875 FPS (1024 SPF)
Compression mode            : Lossy
Stream size                 : 141 MiB (10%)
Title                       : LatestHDMovies - TeamSHAHID
Language                    : Hindi
Default                     : Yes
Forced                      : No



 
          
Category:Movies > Bollywood
Lang:Hindi
Total Size:1.32 GB
Info Hash:f25d51228c0c65a92dc8d18480310b5fad9ce91d
Added By:ShahidHasanzai
Date Added:14-04-2018 01:28:34
Views:563
Hits:109

Download Torrent

Ratings:Not Yet Rated (Log in to rate it)


Tracker:
udp://tracker.openbittorrent.com:80/announce


File List: 


Comments

No comments still posted

Powered by 10 Hamsters v2-svn -|- Page Generated In 1.983170 secs.
-|- RSS Feed -|- Feed Info
Theme By: Nikkbu