[Login] or [Signup]
Login
Username:
Password:
[Signup]
[Recover Account]


Poll


You must be logged in to view polls



Torrent Details For "Escape from Planet Earth 2013 720p Esub BluRay Dual Audio English Hindi GOPISAHI"

Escape from Planet Earth 2013 720p Esub BluRay Dual Audio English Hindi GOPISAHI

Download this torrent | Magnet Download
Health:
Seeds: 0
Leechers: 0
Completed:
Last Checked: 13-04-2018 07:53:19
External Torrent
Update Stats
Download Magnet


Poster


iMDB
Imdb Picture Title: Escape from Planet Earth
Year: 2013
Runtime: 89 minutes
Votes: 21705
Rating: 6.0/10
Language: English
Country: USA, Canada
All Genres: Animation, Adventure, Comedy, Family, Sci-Fi
Plot Outline: Astronaut Scorch Supernova finds himself caught in a trap when he responds to an SOS from a notoriously dangerous alien planet.
Tagline: Earth's greatest secrets are about to break out!
Director: Cal Brunker
Writing By: Bob Barlen,Cal Brunker,Tony Leech,Cory Edwards,Stephen Fry,David Javerbaum,Dan Mazer,
Produced By: Ivan Bajic,Tamara Boutcher,Luke Carroll,Phillip Glasser,Jinko Gotoh,Brian Inerfeld,Tony Leech,Harry Linden,Stuart Lowder,Radenko Milakovic,Marvin Peart,Rodney Shealey,George Tsvtanski,Bob Weinstein,Harvey Weinstein,Catherine Winder,
Music: Aaron Zigman
Plot:

The story takes place on planet Baab where admired astronaut Scorch Supernova (Brendan Fraser) is a national hero to the blue alien population. A master of daring rescues, Scorch pulls off astonishing feats with the quiet aid of his nerdy brother, Gary (Rob Corddry), head of mission control at BASA.

- Written by Websurfer

On the planet Baab, admired astronaut Scorch Supernova (Brendan Fraser) is a national hero to the blue alien population. A master of daring rescues, Scorch pulls off astonishing feats with the quiet aid of his nerdy, by-the-rules brother, Gary (Rob Corddry), head of mission control at BASA. When BASA's no-nonsense chief Lena (Jessica Alba) informs the brothers of an SOS from a notoriously dangerous planet, Scorch rejects Gary's warnings and bounds off for yet another exciting mission. But when Scorch finds himself caught in a fiendish trap set by the evil Shanker (William Shatner) it's up to scrawny, risk-adverse Gary to do the real rescuing. As the interplanetary stakes rise to new heights, Gary is left to save his brother, his planet, his beloved wife Kira (Sarah Jessica Parker) and their adventure hungry son Kip.

- Written by The Weinstein Company

Astronaut Scorch Supernova finds himself caught in a trap when he responds to an SOS from a notoriously dangerous alien planet.

- Written by Anonymous
Cast:
Brendan Fraser as Scorch Supernova
Rob Corddry as Gary Supernova
Ricky Gervais as Mr. James Bing
Jonathan Morgan Heit as Kip Supernova
Jessica Alba as Lena Thackleman
SofĂ­a Vergara as Gabby Babblebrock
Paul Scheer as Cameraman
Jason Simpson as Barry / Hazmat / Pilot
Sarah Jessica Parker as Kira Supernova
Doug Abrahams as Hazmat / Baabian Citizen
Trailers:
U.S. Version #1


Watch-Free-HD     Download

Details
Name:Escape from Planet Earth 2013 720p Esub BluRay Dual Audio English Hindi GOPISAHI
Description:

Format                         : Matroska
Format version                 : Version 4 / Version 2
File size                      : 498 MiB
Duration                       : 1 h 29 min
Overall bit rate               : 780 kb/s
Movie name                     : Escape from Planet Earth 2013 GOPISAHI

Video
Format                         : AVC
Format/Info                    : Advanced Video Codec
Codec ID                       : V_MPEG4/ISO/AVC
Duration                       : 1 h 29 min
Bit rate                       : 600 kb/s
Width                          : 1 280 pixels
Height                         : 536 pixels
Display aspect ratio           : 2.40:1
Frame rate mode                : Constant
Frame rate                     : 23.976 (24000/1001) FPS
Stream size                    : 383 MiB (77%)
Title                          : GOPISAHI
Writing library                : x264 core 148 r2708 86b7198

Audio #1
Format                         : AAC
Duration                       : 1 h 29 min
Bit rate                       : 90.3 kb/s
Channel(s)                     : 6 channels
Channel positions              : Front: L C R, Side: L R, LFE
Sampling rate                  : 44.1 kHz
Frame rate                     : 43.066 FPS (1024 SPF)
Compression mode               : Lossy
Stream size                    : 57.6 MiB (12%)
Title                          : GOPISAHI
Language                       : English

Audio #2
Format                         : AAC
Duration                       : 1 h 29 min
Bit rate                       : 87.1 kb/s
Channel(s)                     : 6 channels
Channel positions              : Front: L C R, Side: L R, LFE
Sampling rate                  : 44.1 kHz
Frame rate                     : 43.066 FPS (1024 SPF)
Compression mode               : Lossy
Stream size                    : 55.6 MiB (11%)
Title                          : GOPISAHI
Language                       : Hindi

Text
Language                       : English


6h3X90ZS_XkkEOJy1P4agCLcBGAs/s1600/Escape%2Bfrom%2BPlanet%2BEarth%2B2013%2B720p%2BEsub%2BBluRay%2B%2BDual%2BAudio%2BEnglish%2BHindi%2BGOPISAHI.mkv_snapshot_00.45.31.jpg" onclick="return false;">6h3X90ZS_XkkEOJy1P4agCLcBGAs/s1600/Escape%2Bfrom%2BPlanet%2BEarth%2B2013%2B720p%2BEsub%2BBluRay%2B%2BDual%2BAudio%2BEnglish%2BHindi%2BGOPISAHI.mkv_snapshot_00.45.31.jpg" class="resized" style="width:65em;height:auto;" />
Category:Movies > Hollywood Dub
Lang:Hindi
Total Size:497.64 MB
Info Hash:eea07eefffafc811bb2f4caaa15a64dd32739fcd
Added By:gopisahi
Date Added:13-04-2018 07:53:19
Views:938
Hits:55

Download Torrent

Ratings:Not Yet Rated (Log in to rate it)


Tracker:
udp://9.rarbg.com:2740/announce


File List: 


Comments

No comments still posted

Powered by 10 Hamsters v2-svn -|- Page Generated In 0.313787 secs.
-|- RSS FEED
Theme By: Nikkbu