[Login] or [Signup]
Login
Username:
Password:
[Signup]
[Recover Account]


Poll


You must be logged in to view polls



Torrent Details For "Eken Babu (Bengali) - 2CD - Detective Web Series Rip[x264 - AAC3(5.1Ch)]"

Eken Babu (Bengali) - 2CD - Detective Web Series Rip[x264 - AAC3(5.1Ch)]

Download this torrent | Magnet Download
Health:
Seeds: 84
Leechers: 26
Completed: 161 
Last Checked: 15-04-2018 06:29:40
External Torrent
Update Stats
Download Magnet


Poster


Watch-Free-HD     Download

Details
Name:Eken Babu (Bengali) - 2CD - Detective Web Series Rip[x264 - AAC3(5.1Ch)]
Description:
Eken Babu (Bengali) - 2CD - Detective
Web Series Rip[x264 - AAC3(5.1Ch)]
 





General
Format                                   : Matroska
Format version                           : Version 2
File size                                : 1.40 GiB
Duration                                 : 3 h 40 min

Video
ID                                       : 1
Format                                   : AVC
Format/Info                              : Advanced Video Codec
Format profile                           : [email protected]
Format settings                          : CABAC / 4 Ref Frames
Format settings, CABAC                   : Yes
Format settings, RefFrames               : 4 frames
Codec ID                                 : V_MPEG4/ISO/AVC
Duration                                 : 3 h 40 min
Bit rate                                 : 781 kb/s
Width                                    : 720 pixels
Height                                   : 392 pixels
Display aspect ratio                     : 1.85:1
Frame rate mode                          : Constant
Frame rate                               : 25.000 FPS
Color space                              : YUV
Chroma subsampling                       : 4:2:0
Bit depth                                : 8 bits
Scan type                                : Progressive
Bits/(Pixel*Frame)                       : 0.111
Stream size                              : 1.20 GiB (86%)

Audio
ID                                       : 2
Format                                   : AAC
Format/Info                              : Advanced Audio Codec
Format profile                           : HE-AACv2 / HE-AAC / LC
Format settings                          : NBC
Codec ID                                 : A_AAC-2
Duration                                 : 3 h 40 min
Bit rate                                 : 128 kb/s
Channel(s)                               : 6 channels
Channel positions                        : Front: L R / Front: L C R / Front: L C R
Sampling rate                            : 48.0 kHz
Stream size                              : 201 MiB (14%)      


Thumbnail




Category:Movies > Bengali
Lang:Bengali  Bengali
Total Size:1.40 GB
Info Hash:27ddd33f979542eeec1707cd835f66c82f678571
Added By:Pherarim
Date Added:13-04-2018 05:35:18
Views:379
Hits:53

Download Torrent

Ratings:Not Yet Rated (Log in to rate it)

  


Tracker:
udp://9.rarbg.me:2710/announce


File List: 


Comments

No comments still posted

Powered by 10 Hamsters v2-svn -|- Page Generated In 0.764120 secs.
-|- RSS FEED
Theme By: Nikkbu