[Login] or [Signup]
Login
Username:
Password:
[Signup]
[Recover Account]


Poll


You must be logged in to view polls



Torrent Details For "Honeymoon (2018) Bengali Movie - 1CD - HDRip[Mp4 - AAC3(2Ch)]"

Honeymoon (2018) Bengali Movie - 1CD - HDRip[Mp4 - AAC3(2Ch)]

Download this torrent | Magnet Download
Health:
Seeds: 86
Leechers: 42
Completed: 291 
Last Checked: 14-04-2018 11:28:52
External Torrent
Update Stats
Download Magnet


Poster


Watch-Free-HD     Download

Details
Name:Honeymoon (2018) Bengali Movie - 1CD - HDRip[Mp4 - AAC3(2Ch)]
Description:
Honeymoon (2018) Bengali Movie - 1CD -
HDRip[Mp4 - AAC3(2Ch)]
 






General
Format                                   : MPEG-4
Format profile                           : Base Media
Codec ID                                 : isom (isom)
File size                                : 701 MiB
Duration                                 : 2 h 3 min

Video
ID                                       : 1
Format                                   : AVC
Format/Info                              : Advanced Video Codec
Format profile                           : [email protected]
Format settings                          : CABAC / 4 Ref Frames
Format settings, CABAC                   : Yes
Format settings, RefFrames               : 4 frames
Codec ID                                 : avc1
Codec ID/Info                            : Advanced Video Coding
Duration                                 : 2 h 3 min
Bit rate                                 : 712 kb/s
Maximum bit rate                         : 3 263 kb/s
Width                                    : 640 pixels
Height                                   : 336 pixels
Display aspect ratio                     : 1.905
Frame rate mode                          : Constant
Frame rate                               : 25.000 FPS
Color space                              : YUV
Chroma subsampling                       : 4:2:0
Bit depth                                : 8 bits
Scan type                                : Progressive
Bits/(Pixel*Frame)                       : 0.132
Stream size                              : 627 MiB (90%)

Audio
ID                                       : 2
Format                                   : AAC
Format/Info                              : Advanced Audio Codec
Format profile                           : HE-AAC / LC
Format settings                          : Explicit
Codec ID                                 : mp4a-40-2
Duration                                 : 2 h 3 min
Bit rate mode                            : Variable
Bit rate                                 : 80.0 kb/s
Maximum bit rate                         : 91.9 kb/s
Channel(s)                               : 2 channels
Channel positions                        : Front: L R
Sampling rate                            : 48.0 kHz
Stream size                              : 70.5 MiB (10%)        

Thumbnail


Category:Movies > Bengali
Lang:Bengali  Bengali
Total Size:700.65 MB
Info Hash:4efe595cdd4a72f91ffca7047ebf575d500bba9e
Added By:Pherarim
Date Added:11-04-2018 19:45:52
Views:440
Hits:85

Download Torrent

Ratings:Not Yet Rated (Log in to rate it)

  


Tracker:
udp://9.rarbg.me:2710/announce


File List: 


Comments

No comments still posted

Powered by 10 Hamsters v2-svn -|- Page Generated In 0.327593 secs.
-|- RSS Feed -|- Feed Info
Theme By: Nikkbu