[Login] or [Signup]
Login
Username:
Password:
[Signup]
[Recover Account]


Poll


You must be logged in to view polls



Torrent Details For "Honeymoon (2018) Bengali Movie - 1CD - HDRip[x264 - AAC3(5.1Ch)]"

Honeymoon (2018) Bengali Movie - 1CD - HDRip[x264 - AAC3(5.1Ch)]

Download this torrent | Magnet Download
Health:
Seeds: 32
Leechers: 26
Completed: 12 
Last Checked: 12-04-2018 17:36:46
External Torrent
Update Stats
Download Magnet


Poster


Watch-Free-HD     Download

Details
Name:Honeymoon (2018) Bengali Movie - 1CD - HDRip[x264 - AAC3(5.1Ch)]
Description:
Honeymoon (2018) Bengali Movie - 1CD -
HDRip[x264 - AAC3(5.1Ch)]
 






General
Format                                   : Matroska
Format version                           : Version 2
File size                                : 699 MiB
Duration                                 : 2 h 16 min

Video
ID                                       : 1
Format                                   : AVC
Format/Info                              : Advanced Video Codec
Format profile                           : [email protected]
Format settings                          : CABAC / 4 Ref Frames
Format settings, CABAC                   : Yes
Format settings, RefFrames               : 4 frames
Codec ID                                 : V_MPEG4/ISO/AVC
Duration                                 : 2 h 16 min
Bit rate                                 : 586 kb/s
Width                                    : 720 pixels
Height                                   : 304 pixels
Display aspect ratio                     : 2.35:1
Frame rate mode                          : Constant
Frame rate                               : 25.000 FPS
Color space                              : YUV
Chroma subsampling                       : 4:2:0
Bit depth                                : 8 bits
Scan type                                : Progressive
Bits/(Pixel*Frame)                       : 0.107
Stream size                              : 572 MiB (82%)

Audio
ID                                       : 2
Format                                   : AAC
Format/Info                              : Advanced Audio Codec
Format profile                           : HE-AAC / LC
Format settings                          : Explicit
Codec ID                                 : A_AAC-2
Duration                                 : 2 h 16 min
Bit rate                                 : 128 kb/s
Channel(s)                               : 6 channels
Channel positions                        : Front: L C R, Side: L R, LFE
Sampling rate                            : 48.0 kHz
Stream size                              : 125 MiB (18%)          

Thumbnail




Category:Movies > Bengali
Lang:Bengali  Bengali
Total Size:698.60 MB
Info Hash:bf95eda026bdc2dfc526f653dfb748597fddcef9
Added By:Pherarim
Date Added:11-04-2018 18:50:15
Views:196
Hits:11

Download Torrent

Ratings:Not Yet Rated (Log in to rate it)

  


Tracker:
udp://9.rarbg.me:2710/announce


File List: 


Comments

No comments still posted

Powered by 10 Hamsters v2-svn -|- Page Generated In 0.995438 secs.
-|- RSS FEED
Theme By: Nikkbu