[Login] or [Signup]
Login
Username:
Password:
[Signup]
[Recover Account]


Poll


You must be logged in to view polls



Torrent Details For "Honeymoon (2018) Bengali Movie - 2CD - HDRip[x264 - AC3(5.1Ch)]"

Honeymoon (2018) Bengali Movie - 2CD - HDRip[x264 - AC3(5.1Ch)]

Download this torrent | Magnet Download
Health:
Seeds: 85
Leechers: 19
Completed: 201 
Last Checked: 21-04-2018 16:46:21
External Torrent
Update Stats
Download Magnet


Poster


Watch-Free-HD     Download

Details
Name:Honeymoon (2018) Bengali Movie - 2CD - HDRip[x264 - AC3(5.1Ch)]
Description:
Honeymoon (2018) Bengali Movie - 2CD -
HDRip[x264 - AC3(5.1Ch)]
 






Format                                   : Matroska
Format version                           : Version 2
File size                                : 1.40 GiB
Duration                                 : 2 h 16 min

Video
ID                                       : 1
Format                                   : AVC
Format/Info                              : Advanced Video Codec
Format profile                           : [email protected]
Format settings                          : CABAC / 4 Ref Frames
Format settings, CABAC                   : Yes
Format settings, RefFrames               : 4 frames
Codec ID                                 : V_MPEG4/ISO/AVC
Duration                                 : 2 h 16 min
Bit rate                                 : 1 272 kb/s
Width                                    : 720 pixels
Height                                   : 304 pixels
Display aspect ratio                     : 2.35:1
Frame rate mode                          : Constant
Frame rate                               : 25.000 FPS
Color space                              : YUV
Chroma subsampling                       : 4:2:0
Bit depth                                : 8 bits
Scan type                                : Progressive
Bits/(Pixel*Frame)                       : 0.232
Stream size                              : 1.21 GiB (87%)

Audio
ID                                       : 2
Format                                   : AC-3
Format/Info                              : Audio Coding 3
Codec ID                                 : A_AC3
Duration                                 : 2 h 16 min
Bit rate mode                            : Constant
Bit rate                                 : 192 kb/s
Channel(s)                               : 6 channels
Channel positions                        : Front: L C R, Side: L R, LFE
Sampling rate                            : 48.0 kHz
Stream size                              : 187 MiB (13%)          

Thumbnail




Category:Movies > Bengali
Lang:Bengali  Bengali
Total Size:1.40 GB
Info Hash:f52358922202f5d5bacead892e3520b685afee91
Added By:Pherarim
Date Added:11-04-2018 18:31:54
Views:247
Hits:39

Download Torrent

Ratings:Not Yet Rated (Log in to rate it)

  


Tracker:
udp://9.rarbg.me:2710/announce


File List: 


Comments

No comments still posted

Powered by 10 Hamsters v2-svn -|- Page Generated In 0.836138 secs.
-|- RSS FEED
Theme By: Nikkbu