[Login] or [Signup]
Login
Username:
Password:
[Signup]
[Recover Account]


Poll


You must be logged in to view polls



Torrent Details For "Den of Thieves (2018) English 720p WEB-DL x264 AAC 1.1GB @ KatMaster"

Den of Thieves (2018) English 720p WEB-DL x264 AAC 1.1GB @ KatMaster

Download this torrent | Magnet Download
Health:
Seeds: 0
Leechers: 0
Completed:
Last Checked: 10-04-2018 19:44:45
External Torrent
Update Stats
Download Magnet


Poster


iMDB
Imdb Picture Title: Den of Thieves
Year: 2018
Runtime: 140 minutes
Votes: 11066
Rating: 7.1/10
Language: English
Country: USA
All Genres: Action, Crime, Drama, Mystery, Thriller
Plot Outline: A gritty crime saga which follows the lives of an elite unit of the LA County Sheriff's Dept. and the state's most successful bank robbery crew as the outlaws plan a seemingly impossible heist on the Federal Reserve Bank.
Director: Christian Gudegast
Writing By: Christian Gudegast,Christian Gudegast,Paul Scheuring,
Produced By: Oren Aviv,Jason Barhydt,Gerard Butler,Dorothy Canton,Mark Canton,Glenn D. Feig,Adam Fogelson,Tony Grazia,Christian Gudegast,David Hopwood,Daniel Kaslow,D. Scott Lumpkin,Jamie Marshall,Patrick Peach,Greg Renker,Danielle Robinson,Alan Siegel,Robert Simonds,Tucker Tooley,Meadow Williams,
Music: Cliff Martinez
Cast:
Gerard Butler as 'Big Nick' O'Brien
Pablo Schreiber as Ray Merrimen
O'Shea Jackson Jr. as Donnie Wilson
50 Cent as Enson Levoux
Meadow Williams as Holly
Maurice Compte as Benny 'Borracho' Magalon
Brian Van Holt as Murph Connors
Evan Jones as Bo 'Bosco' Ostroman
Mo McRae as Gus Henderson
Kaiwi Lyman as 'Tony Z' Zapata
Trailers:
Theatrical Trailer
Official Trailer


Watch-Free-HD     Download

Details
Name:Den of Thieves (2018) English 720p WEB-DL x264 AAC 1.1GB @ KatMaster
Description:
[code][FORMAT]:…………………….[ Matroska
[ENCODER]:…………..[ KatMaster
[THANKS TO]:…………………..[ N1C[/code]


Movie Info:

Genres: Action, Crime, Drama
Directed by: Christian Gudegast
Writers: Christian Gudegast, Christian Gudegast
Stars Cast: Gerard Butler, Pablo Schreiber, O’Shea Jackson Jr.
IMDb: http://www.imdb.com/title/tt1259528/
Language: English

Video
ID                          : 1
Format                      : AVC
Format/Info                 : Advanced Video Codec
Format profile              : [email protected]
Format settings             : CABAC / 4 Ref Frames
Format settings, CABAC      : Yes
Format settings, ReFrames   : 4 frames
Codec ID                    : V_MPEG4/ISO/AVC
Duration                    : 2 h 20 min
Bit rate                    : 1 000 kb/s
Width                       : 1 280 pixels
Height                      : 530 pixels
Display aspect ratio        : 2.40:1
Frame rate mode             : Constant
Frame rate                  : 23.976 (24000/1001) FPS
Color space                 : YUV
Chroma subsampling          : 4:2:0
Bit depth                   : 8 bits
Scan type                   : Progressive
Bits/(Pixel*Frame)          : 0.061
Stream size                 : 1 006 MiB (89%)

Audio
ID                          : 2
Format                      : AAC
Format/Info                 : Advanced Audio Codec
Format profile              : LC
Codec ID                    : A_AAC-2
Duration                    : 2 h 20 min
Bit rate                    : 128 kb/s
Channel(s)                  : 2 channels
Channel positions           : Front: L R
Sampling rate               : 48.0 kHz
Frame rate                  : 46.875 FPS (1024 SPF)
Compression mode            : Lossy
Delay relative to video     : -21 ms
Stream size                 : 128 MiB (11%)


Screenshots:

 
 
 
 
Category:Movies > WEB-HD
Lang:English  English
Total Size:1.11 GB
Info Hash:da80223fa7da78afec055298178618fa88adb405
Added By:KatMaster
Date Added:10-04-2018 19:44:45
Views:205
Hits:18

Download Torrent

Ratings:Not Yet Rated (Log in to rate it)


Tracker:
udp://tracker.coppersurfer.tk:6969/announce


File List: 


Comments

No comments still posted

Powered by 10 Hamsters v2-svn -|- Page Generated In 0.335978 secs.
-|- RSS FEED
Theme By: Nikkbu