[Login] or [Signup]
Login
Username:
Password:
[Signup]
[Recover Account]


Poll


You must be logged in to view polls



Torrent Details For "You Were Never Really Here 2017 720p WEB-DL x264 [MW]"

You Were Never Really Here 2017 720p WEB-DL x264 [MW]

Download this torrent | Magnet Download
Health:
Seeds: 216
Leechers: 64
Completed: 1,144 
Last Checked: 08-04-2018 09:07:15
External Torrent
Update Stats
Download Magnet


Poster
No poster


Watch-Free-HD     Download

Details
Name:You Were Never Really Here 2017 720p WEB-DL x264 [MW]
Description:

 

General
Format                                   : Matroska
Format version                           : Version 4 / Version 2
File size                                : 820 MiB
Duration                                 : 1 h 29 min
Overall bit rate                         : 1 283 kb/s

Video
ID                                       : 1
Format                                   : AVC
Format/Info                              : Advanced Video Codec
Format profile                           : [email protected]
Format settings                          : CABAC / 4 Ref Frames
Format settings, CABAC                   : Yes
Format settings, RefFrames               : 4 frames
Codec ID                                 : V_MPEG4/ISO/AVC
Duration                                 : 1 h 29 min
Bit rate                                 : 1 200 kb/s
Width                                    : 1 280 pixels
Height                                   : 532 pixels
Display aspect ratio                     : 2.40:1
Frame rate mode                          : Constant
Frame rate                               : 24.000 FPS
Color space                              : YUV
Chroma subsampling                       : 4:2:0
Bit depth                                : 8 bits
Scan type                                : Progressive
Bits/(Pixel*Frame)                       : 0.073
Stream size                              : 759 MiB (92%)
Writing library                          : x264 core 155 r2893 b00bcaf
Default                                  : Yes
Forced                                   : No

Audio
ID                                       : 2
Format                                   : AAC
Format/Info                              : Advanced Audio Codec
Format profile                           : HE-AAC / LC
Format settings                          : Explicit
Codec ID                                 : A_AAC-2
Duration                                 : 1 h 29 min
Bit rate                                 : 96.0 kb/s
Channel(s)                               : 2 channels
Channel positions                        : Front: L R
Sampling rate                            : 48.0 kHz / 24.0 kHz
Frame rate                               : 23.438 FPS (1024 SPF)
Compression mode                         : Lossy
Stream size                              : 60.5 MiB (7%)
Language                                 : English
Default                                  : Yes
Forced                                   : No

Menu
00:00:00.000                             : en:1
00:13:15.958                             : en:2
00:19:42.958                             : en:3
00:31:56.000                             : en:4
00:42:47.958                             : en:5
00:53:23.000                             : en:6
01:06:48.958                             : en:7
01:18:07.000                             : en:8
01:21:57.000                             : en:9




           


Category:Movies > WEB-HD
Lang:English  English
Total Size:820.41 MB
Info Hash:03a32110e519fa015513100742a38128df299a43
Added By:Freaky
Date Added:07-04-2018 14:57:42
Views:345
Hits:18

Download Torrent

Ratings:Not Yet Rated (Log in to rate it)


Tracker:
udp://tracker.pirateparty.gr:6969/announce

This Torrent also has backup trackers
URLSeedersLeechersCompleted
http://tracker.vanitycore.co:6969/announce18568
http://public.popcorn-tracker.org:6969/announce16754


File List: 


Comments

No comments still posted

Powered by 10 Hamsters v2-svn -|- Page Generated In 3.661383 secs.
-|- RSS FEED
Theme By: Nikkbu