[Login] or [Signup]
Login
Username:
Password:
[Signup]
[Recover Account]


Poll


You must be logged in to view polls



Torrent Details For "Spinning Man (2018) English 720p WEB-DL x264 800MB @ KatMaster"

Spinning Man (2018) English 720p WEB-DL x264 800MB @ KatMaster

Download this torrent | Magnet Download
Health:
Seeds: 14
Leechers: 18
Completed: 92 
Last Checked: 07-04-2018 11:17:54
External Torrent
Update Stats
Download Magnet


Poster


iMDB
Imdb Picture Title: Spinning Man
Year: 2018
Runtime: 100 minutes
Votes: 90
Rating: 5.7/10
Language: English
Country: Ireland, Sweden, USA
All Genres: Drama, Mystery, Thriller
Plot Outline: A happily married professor, known for having many affairs with students, becomes the prime suspect when a young woman has gone missing.
Tagline: What You Believe. What You Know. Is All How You Spin It.
Director: Simon Kaijser
Writing By: Matthew Aldrich,George Harrar,
Produced By: Keith Arnold,Robert Ballo,Barry Brooker,Michael T. Covell,Tara Finegan,Jeff Geoffray,Jeffrey Konvitz,Alix Madigan,Lori Mathison,Joe McDougall,Grant Mohrman,Daniel Rainey,Christopher Tricarico,Ellen S. Wander,Stan Wertlieb,Marianne C. Wunch,Fredrik Zander,
Music: Jean-Paul Wall
Cast:
Odeya Rush as Joyce
Alexandra Shipp as Anna
Pierce Brosnan as Malloy
Minnie Driver as Ellen Birch
Guy Pearce as Evan Birch
Clark Gregg as Paul
Freya Tingley as Mary
Jamie Kennedy as Ross
Sterling Beaumon as Matt
RJ Walker as Barnes
Trailers:
Official Trailer


Watch-Free-HD     Download

Details
Name:Spinning Man (2018) English 720p WEB-DL x264 800MB @ KatMaster
Description:
[code][FORMAT]:…………………….[ Matroska
[ENCODER]:…………..[ KatMaster
[THANKS TO]:…………………..[ EVO[/code]

A happily married professor, known for having many affairs with students, becomes the prime suspect when a young woman has gone missing.


Movie Info:

Genres: Drama, Mystery, Thriller
Directed by: Simon Kaijser
Writers: Matthew Aldrich, George Harrar
Stars Cast: Odeya Rush, Alexandra Shipp, Pierce Brosnan
IMDb: http://www.imdb.com/title/tt5616294/
Language: English

Video
ID                          : 1
Format                      : AVC
Format/Info                 : Advanced Video Codec
Format profile              : [email protected]
Format settings             : CABAC / 4 Ref Frames
Format settings, CABAC      : Yes
Format settings, ReFrames   : 4 frames
Codec ID                    : V_MPEG4/ISO/AVC
Duration                    : 1 h 40 min
Bit rate                    : 1 000 kb/s
Width                       : 1 280 pixels
Height                      : 532 pixels
Display aspect ratio        : 2.40:1
Frame rate mode             : Constant
Frame rate                  : 23.976 (24000/1001) FPS
Color space                 : YUV
Chroma subsampling          : 4:2:0
Bit depth                   : 8 bits
Scan type                   : Progressive
Bits/(Pixel*Frame)          : 0.061
Stream size                 : 711 MiB (88%)

Audio
ID                          : 2
Format                      : AAC
Format/Info                 : Advanced Audio Codec
Format profile              : LC
Codec ID                    : A_AAC-2
Duration                    : 1 h 40 min
Bit rate                    : 128 kb/s
Channel(s)                  : 2 channels
Channel positions           : Front: L R
Sampling rate               : 48.0 kHz
Frame rate                  : 46.875 FPS (1024 SPF)
Compression mode            : Lossy
Delay relative to video     : -21 ms
Stream size                 : 92.1 MiB (11%)


Screenshots:

 
 
 
 
 
 
Category:Movies > WEB-HD
Lang:English  English
Total Size:804.67 MB
Info Hash:e215d1a9c82612af1c2b9264c6180d36286babf0
Added By:KatMaster
Date Added:06-04-2018 17:37:10
Views:255
Hits:49

Download Torrent

Ratings:Not Yet Rated (Log in to rate it)


Tracker:
udp://tracker.coppersurfer.tk:6969/announce


File List: 


Comments

No comments still posted

Powered by 10 Hamsters v2-svn -|- Page Generated In 0.453043 secs.
-|- RSS Feed -|- Feed Info
Theme By: Nikkbu