[Login] or [Signup]
Login
Username:
Password:
[Signup]
[Recover Account]


Poll


You must be logged in to view polls



Torrent Details For "Spinning Man 2018 720p WEB-DL x264 ESub [MW]"

Spinning Man 2018 720p WEB-DL x264 ESub [MW]

Download this torrent | Magnet Download
Health:
Seeds: 145
Leechers: 248
Completed: 238 
Last Checked: 06-04-2018 16:12:22
External Torrent
Update Stats
Download Magnet


Poster
No poster


Watch-Free-HD     Download

Details
Name:Spinning Man 2018 720p WEB-DL x264 ESub [MW]
Description:

 

General
Format                                   : Matroska
Format version                           : Version 4 / Version 2
File size                                : 899 MiB
Duration                                 : 1 h 40 min
Overall bit rate                         : 1 250 kb/s

Video
ID                                       : 1
Format                                   : AVC
Format/Info                              : Advanced Video Codec
Format profile                           : [email protected]
Format settings                          : CABAC / 4 Ref Frames
Format settings, CABAC                   : Yes
Format settings, RefFrames               : 4 frames
Codec ID                                 : V_MPEG4/ISO/AVC
Duration                                 : 1 h 40 min
Bit rate                                 : 1 200 kb/s
Width                                    : 1 280 pixels
Height                                   : 532 pixels
Display aspect ratio                     : 2.40:1
Frame rate mode                          : Constant
Frame rate                               : 23.976 (24000/1001) FPS
Color space                              : YUV
Chroma subsampling                       : 4:2:0
Bit depth                                : 8 bits
Scan type                                : Progressive
Bits/(Pixel*Frame)                       : 0.073
Stream size                              : 853 MiB (95%)
Writing library                          : x264 core 155 r2893 b00bcaf
Default                                  : Yes
Forced                                   : No

Audio
ID                                       : 3
Format                                   : AAC
Format/Info                              : Advanced Audio Codec
Format profile                           : HE-AAC / LC
Format settings                          : Explicit
Codec ID                                 : A_AAC-2
Duration                                 : 1 h 40 min
Bit rate                                 : 62.7 kb/s
Channel(s)                               : 2 channels
Channel positions                        : Front: L R
Sampling rate                            : 48.0 kHz / 24.0 kHz
Frame rate                               : 23.438 FPS (1024 SPF)
Compression mode                         : Lossy
Stream size                              : 45.1 MiB (5%)
Language                                 : English
Default                                  : Yes
Forced                                   : No

Text
ID                                       : 2
Format                                   : UTF-8
Codec ID                                 : S_TEXT/UTF8
Codec ID/Info                            : UTF-8 Plain Text
Duration                                 : 1 h 39 min
Bit rate                                 : 69 b/s
Count of elements                        : 1694
Stream size                              : 50.9 KiB (0%)
Language                                 : English
Default                                  : Yes
Forced                                   : No

Menu
00:00:00.000                             : en:1
00:11:26.019                             : en:2
00:25:41.040                             : en:3
00:36:45.036                             : en:4
00:47:26.010                             : en:5
00:58:08.026                             : en:6
01:09:21.074                             : en:7
01:21:59.081                             : en:8
01:30:55.075                             : en:9
01:37:24.047                             : en:10




           


Category:Movies > WEB-HD
Lang:English  English
Total Size:899.38 MB
Info Hash:a060cb9beb84003e9f427c268a7a11b79c6dee3d
Added By:Freaky
Date Added:06-04-2018 16:11:56
Views:239
Hits:39

Download Torrent

Ratings:Not Yet Rated (Log in to rate it)


Tracker:
udp://tracker.pirateparty.gr:6969/announce

This Torrent also has backup trackers
URLSeedersLeechersCompleted
http://tracker.vanitycore.co:6969/announce101718
http://public.popcorn-tracker.org:6969/announce111814


File List: 


Comments

No comments still posted

Powered by 10 Hamsters v2-svn -|- Page Generated In 0.724684 secs.
-|- RSS Feed -|- Feed Info
Theme By: Nikkbu