[Login] or [Signup]
Login
Username:
Password:
[Signup]
[Recover Account]


Poll


You must be logged in to view polls



Torrent Details For "Ayla 2017 720p WEB-DL x264 ESub[MW]"

Ayla 2017 720p WEB-DL x264 ESub[MW]

Download this torrent | Magnet Download
Health:
Seeds: 104
Leechers: 60
Completed: 121 
Last Checked: 05-04-2018 22:42:07
External Torrent
Update Stats
Download Magnet


Poster
No poster


Watch-Free-HD     Download

Details
Name:Ayla 2017 720p WEB-DL x264 ESub[MW]
Description:

 


General
Format                                   : Matroska
Format version                           : Version 4 / Version 2
File size                                : 789 MiB
Duration                                 : 1 h 26 min
Overall bit rate                         : 1 275 kb/s

Video
ID                                       : 1
Format                                   : AVC
Format/Info                              : Advanced Video Codec
Format profile                           : [email protected]
Format settings                          : CABAC / 4 Ref Frames
Format settings, CABAC                   : Yes
Format settings, RefFrames               : 4 frames
Codec ID                                 : V_MPEG4/ISO/AVC
Duration                                 : 1 h 26 min
Bit rate                                 : 1 200 kb/s
Width                                    : 1 280 pixels
Height                                   : 644 pixels
Display aspect ratio                     : 1.988
Frame rate mode                          : Constant
Frame rate                               : 23.976 (24000/1001) FPS
Color space                              : YUV
Chroma subsampling                       : 4:2:0
Bit depth                                : 8 bits
Scan type                                : Progressive
Bits/(Pixel*Frame)                       : 0.061
Stream size                              : 730 MiB (92%)
Writing library                          : x264 core 155 r2893 b00bcaf
Default                                  : Yes
Forced                                   : No

Audio
ID                                       : 2
Format                                   : AAC
Format/Info                              : Advanced Audio Codec
Format profile                           : HE-AAC / LC
Format settings                          : Explicit
Codec ID                                 : A_AAC-2
Duration                                 : 1 h 26 min
Bit rate                                 : 96.0 kb/s
Channel(s)                               : 2 channels
Channel positions                        : Front: L R
Sampling rate                            : 48.0 kHz / 24.0 kHz
Frame rate                               : 23.438 FPS (1024 SPF)
Compression mode                         : Lossy
Stream size                              : 58.6 MiB (7%)
Language                                 : English
Default                                  : Yes
Forced                                   : No

Text
ID                                       : 3
Format                                   : UTF-8
Codec ID                                 : S_TEXT/UTF8
Codec ID/Info                            : UTF-8 Plain Text
Duration                                 : 1 h 21 min
Bit rate                                 : 21 b/s
Count of elements                        : 537
Stream size                              : 12.7 KiB (0%)
Language                                 : English
Default                                  : Yes
Forced                                   : No

Menu
00:00:00.000                             : en:1
00:11:44.913                             : en:2
00:20:43.200                             : en:3
00:34:09.005                             : en:4
00:44:45.683                             : en:5
00:55:48.887                             : en:6
01:06:48.630                             : en:7
01:21:46.985                             : en:8




         
 

Category:Movies > WEB-HD
Lang:English  English
Total Size:789.48 MB
Info Hash:fc77e52ef0c350cb4006a1ebd3cab92507565f5e
Added By:Freaky
Date Added:05-04-2018 22:41:38
Views:469
Hits:21

Download Torrent

Ratings:Not Yet Rated (Log in to rate it)


Tracker:
udp://tracker.pirateparty.gr:6969/announce

This Torrent also has backup trackers
URLSeedersLeechersCompleted
http://tracker.vanitycore.co:6969/announce849
http://public.popcorn-tracker.org:6969/announce858


File List: 


Comments

No comments still posted

Powered by 10 Hamsters v2-svn -|- Page Generated In 3.851043 secs.
-|- RSS FEED
Theme By: Nikkbu