[Login] or [Signup]
Login
Username:
Password:
[Signup]
[Recover Account]


Poll


You must be logged in to view polls



Torrent Details For "Weve Forgotten More Than We Ever Knew 2017 720p WEB-DL x264 ESub [MW]"

Weve Forgotten More Than We Ever Knew 2017 720p WEB-DL x264 ESub [MW]

Download this torrent | Magnet Download
Health:
Seeds: 129
Leechers: 128
Completed: 237 
Last Checked: 05-04-2018 12:40:30
External Torrent
Update Stats
Download Magnet


Poster
No poster


Watch-Free-HD     Download

Details
Name:Weve Forgotten More Than We Ever Knew 2017 720p WEB-DL x264 ESub [MW]
Description:

 


General
Format                                   : Matroska
Format version                           : Version 4 / Version 2
File size                                : 889 MiB
Duration                                 : 1 h 28 min
Overall bit rate                         : 1 406 kb/s

Video
ID                                       : 1
Format                                   : AVC
Format/Info                              : Advanced Video Codec
Format profile                           : [email protected]
Format settings                          : CABAC / 4 Ref Frames
Format settings, CABAC                   : Yes
Format settings, RefFrames               : 4 frames
Codec ID                                 : V_MPEG4/ISO/AVC
Duration                                 : 1 h 28 min
Bit rate                                 : 1 300 kb/s
Width                                    : 1 280 pixels
Height                                   : 544 pixels
Display aspect ratio                     : 2.35:1
Frame rate mode                          : Constant
Frame rate                               : 23.976 (24000/1001) FPS
Color space                              : YUV
Chroma subsampling                       : 4:2:0
Bit depth                                : 8 bits
Scan type                                : Progressive
Bits/(Pixel*Frame)                       : 0.078
Stream size                              : 808 MiB (91%)
Writing library                          : x264 core 155 r2893 b00bcaf
Default                                  : Yes
Forced                                   : No

Audio
ID                                       : 2
Format                                   : AAC
Format/Info                              : Advanced Audio Codec
Format profile                           : HE-AAC / LC
Format settings                          : Explicit
Codec ID                                 : A_AAC-2
Duration                                 : 1 h 28 min
Bit rate                                 : 127 kb/s
Channel(s)                               : 2 channels
Channel positions                        : Front: L R
Sampling rate                            : 48.0 kHz / 24.0 kHz
Frame rate                               : 23.438 FPS (1024 SPF)
Compression mode                         : Lossy
Stream size                              : 80.1 MiB (9%)
Language                                 : English
Default                                  : Yes
Forced                                   : No

Text
ID                                       : 3
Format                                   : UTF-8
Codec ID                                 : S_TEXT/UTF8
Codec ID/Info                            : UTF-8 Plain Text
Duration                                 : 1 h 26 min
Bit rate                                 : 20 b/s
Count of elements                        : 655
Stream size                              : 13.3 KiB (0%)
Language                                 : English
Default                                  : Yes
Forced                                   : No

Menu #1
00:00:00.000                             : en:Chapter 1
00:15:00.024                             : en:Chapter 2
00:30:00.007                             : en:Chapter Three
00:45:00.072                             : en:Chapter Four
01:00:00.055                             : en:Chapter Five
01:14:59.996                             : en:Chapter 6



           

Category:Movies > WEB-HD
Lang:English  English
Total Size:888.86 MB
Info Hash:fd3da5030388579c6cc67abcc03cc321e6a82439
Added By:Freaky
Date Added:05-04-2018 12:40:09
Views:370
Hits:8

Download Torrent

Ratings:Not Yet Rated (Log in to rate it)


Tracker:
udp://tracker.pirateparty.gr:6969/announce

This Torrent also has backup trackers
URLSeedersLeechersCompleted
http://tracker.vanitycore.co:6969/announce10718
http://public.popcorn-tracker.org:6969/announce10817


File List: 


Comments

No comments still posted

Powered by 10 Hamsters v2-svn -|- Page Generated In 3.817504 secs.
-|- RSS FEED
Theme By: Nikkbu