[Login] or [Signup]
Login
Username:
Password:
[Signup]
[Recover Account]


Poll


You must be logged in to view polls



Torrent Details For "Dynamite (2017) New Released Full Hindi Dubbed Movie - Vishnu Manchu, Pranitha Subhash - YouTub..."

Dynamite (2017) New Released Full Hindi Dubbed Movie - Vishnu Manchu, Pranitha Subhash - YouTub...

Download this torrent | Magnet Download
Health:
Seeds: 0
Leechers: 17
Completed:
Last Checked: 12-11-2017 09:03:14
External Torrent
Update Stats
Download Magnet


Poster


iMDB
Imdb Picture Title: Dynamite
Year: 2015
Votes: 102
Rating: 7.8/10
Language: Telugu
Country: India
All Genres: Action
Plot Outline: Dynamite is the official remake of Tamil film Arima Nambi. The story revolves around the kidnapping of a girl and how the hero tries to hunt down the criminals and save her.
Director: Katta Deva
Writing By: B.V.S. Ravi,
Produced By: Vishnu Manchu,
Music: Achu Rajamani
Cast:
J.D. Chakravarthi as
Viva Harsha as
Vishnu Manchu as
Nagineedu as
Venkateswara Rao Paruchuri as
Ravi Prakash as
Pranitha as
Praveen as
Raja Ravindra as
Prabhas Sreenu as


Watch-Free-HD     Download

Details
Name:Dynamite (2017) New Released Full Hindi Dubbed Movie - Vishnu Manchu, Pranitha Subhash - YouTub...
Description:

Uploaded By
First On Net By Shanoo
General
Complete name               : Dynamite (2017) by Shanoo
Format                      : MPEG-4
Format profile              : Base Media
Codec ID                    : isom (isom/iso2/avc1/mp41)
File size                   : 676 MiB
Duration                    : 1h 57mn
Overall bit rate mode       : Variable
Overall bit rate            : 807 Kbps
Encoded date                : UTC 2017-11-03 21:45:38
Tagged date                 : UTC 2017-11-03 21:45:38

Video
ID                          : 1
Format                      : AVC
Format/Info                 : Advanced Video Codec
Format profile              : [email protected]
Format settings, CABAC      : Yes
Format settings, ReFrames   : 3 frames
Codec ID                    : avc1
Codec ID/Info               : Advanced Video Coding
Duration                    : 1h 57mn
Source duration             : 1h 57mn
Bit rate                    : 678 Kbps
Width                       : 854 pixels
Height                      : 480 pixels
Display aspect ratio        : 16:9
Frame rate mode             : Constant
Frame rate                  : 25.000 fps
Color space                 : YUV
Chroma subsampling          : 4:2:0
Bit depth                   : 8 bits
Scan type                   : Progressive
Bits/(Pixel*Frame)          : 0.066
Stream size                 : 568 MiB (84%)
Source stream size          : 568 MiB (84%)
Encoded date                : UTC 2017-11-03 21:45:38
Tagged date                 : UTC 2017-11-03 21:45:38
Color range                 : Limited
Color primaries             : BT.709
Transfer characteristics    : BT.709
Matrix coefficients         : BT.709

Audio
ID                          : 2
Format                      : AAC
Format/Info                 : Advanced Audio Codec
Format profile              : LC
Codec ID                    : 40
Duration                    : 1h 57mn
Bit rate mode               : Variable
Bit rate                    : 126 Kbps
Channel(s)                  : 2 channels
Channel positions           : Front: L R
Sampling rate               : 44.1 KHz
Frame rate                  : 43.066 fps (1024 spf)
Compression mode            : Lossy
Stream size                 : 105 MiB (16%)
Default                     : Yes
Alternate group             : 1
Encoded date                : UTC 2017-11-03 21:19:50
Tagged date                 : UTC 2017-11-03 21:19:50








Category:Movies > South Dub
Lang:Hindi
Total Size:676.39 MB
Info Hash:1a4232af179036b049d1e14809d753a3ac650085
Added By:Shanoo
Date Added:04-11-2017 07:26:19
Views:1,397
Hits:233

Download Torrent

Ratings:Not Yet Rated (Log in to rate it)


Tracker:
udp://tracker.openbittorrent.com:80/announce


File List: 


Comments

No comments still posted

Powered by 10 Hamsters v2-svn -|- Page Generated In 3.975535 secs.
-|- RSS FEED
Theme By: Nikkbu