[Login] or [Signup]
Login
Username:
Password:
[Signup]
[Recover Account]


Poll


You must be logged in to view polls



Torrent Details For "The Mummy 2017 1080p BluRay DTS ORG 5.1 {ENG-HIN} - iParthiv"

The Mummy 2017 1080p BluRay DTS ORG 5.1 {ENG-HIN} - iParthiv

Download this torrent | Magnet Download
Health:
Seeds: 0
Leechers: 8
Completed: 36 
Last Checked: 21-09-2017 18:37:09
External Torrent
Update Stats
Download Magnet


Poster


iMDB
Imdb Picture Title: The Mummy
Year: 2017
Runtime: 110 minutes
Votes: 4794
Rating: 6.3/10
Language: English
Country: USA
All Genres: Action, Adventure, Fantasy, Horror
Plot Outline: An ancient princess is awakened from her crypt beneath the desert, bringing with her malevolence grown over millennia, and terrors that defy human comprehension.
Tagline: Ancient evil returns
Director: Alex Kurtzman
Writing By: David Koepp,Christopher McQuarrie,Dylan Kussman,Jon Spaihts,Alex Kurtzman,Jenny Lumet,
Produced By: Sarah Bradshaw,Jeb Brody,Sean Daniel,Alex Kurtzman,Chris Morgan,Roberto Orci,
Music: Brian Tyler
Plot:

Though safely entombed in a crypt deep beneath the unforgiving desert, an ancient princess, whose destiny was unjustly taken from her, is awakened in our current day bringing with her malevolence grown over millennia, and terrors that defy human comprehension.

- Written by Universal Pictures

After being betrayed and having her destiny wrongfully taken from her, an ancient princess is back with a vengeance and determined to take back all that should have been hers, including the world, bringing with her terrors that defy human comprehension.

- Written by PrettyLilLiar2516

An ancient princess is awakened from her crypt beneath the desert, bringing with her malevolence grown over millennia, and terrors that defy human comprehension.

- Written by Universal Pictures
Cast:
Tom Cruise as Nick Morton
Russell Crowe as Dr. Henry Jekyll
Annabelle Wallis as Jenny Halsey
Sofia Boutella as Ahmanet
Jake Johnson as Chris Vail
Courtney B. Vance as Colonel Greenway
Marwan Kenzari as Malik
Simon Atherton as Crusader
Stephen Thompson as First Man
James Arama as Second Man
Trailers:
Official Trailer #3
Official Trailer #2
Official Trailer
Trailer Teaser


Watch-Free-HD     Download

Details
Name:The Mummy 2017 1080p BluRay DTS ORG 5.1 {ENG-HIN} - iParthiv
Description:
A treasure hunting soldier (Tom Cruise) and an archaeologist (Annabelle Wallis) inadvertently awaken an ancient, malevolent mummy (Sofia Boutella) bent on world domination.

Info:

Video
ID                             : 1
Format                         : AVC
Format/Info                    : Advanced Video Codec
Format profile                 : [email protected]
Format settings, CABAC         : Yes
Format settings, RefFrames     : 5 frames
Codec ID                       : V_MPEG4/ISO/AVC
Duration                       : 1 h 50 min
Bit rate                       : 3 500 kb/s
Width                          : 1 920 pixels
Height                         : 800 pixels
Display aspect ratio           : 2.40:1
Frame rate mode                : Constant
Frame rate                     : 23.976 (24000/1001) FPS
Color space                    : YUV
Chroma subsampling             : 4:2:0
Bit depth                      : 8 bits
Scan type                      : Progressive
Bits/(Pixel*Frame)             : 0.095
Stream size                    : 2.69 GiB (75%)
Writing library                : x264 core 150 r2833 df79067
Encoding settings              : cabac=1 / ref=5 / deblock=1:-1:-1 / analyse=0x3:0x133 / me=umh / subme=9 / psy=1 / psy_rd=1.00:0.15 / mixed_ref=1 / me_range=24 / chroma_me=1 / trellis=2 / 8x8dct=1 / cqm=0 / deadzone=21,11 / fast_pskip=0 / chroma_qp_offset=-3 / threads=12 / lookahead_threads=1 / sliced_threads=0 / nr=200 / decimate=1 / interlaced=0 / bluray_compat=0 / constrained_intra=0 / bframes=3 / b_pyramid=2 / b_adapt=2 / b_bias=0 / direct=3 / weightb=1 / open_gop=0 / weightp=2 / keyint=250 / keyint_min=23 / scenecut=40 / intra_refresh=0 / rc_lookahead=60 / rc=2pass / mbtree=1 / bitrate=3500 / ratetol=1.0 / qcomp=0.60 / qpmin=0 / qpmax=69 / qpstep=4 / cplxblur=20.0 / qblur=0.5 / ip_ratio=1.40 / aq=1:1.00
Language                       : English
Default                        : Yes
Forced                         : No

Audio #1
ID                             : 2
Format                         : DTS
Format/Info                    : Digital Theater Systems
Mode                           : 16
Format settings, Endianness    : Big
Codec ID                       : A_DTS
Duration                       : 1 h 50 min
Bit rate mode                  : Constant
Bit rate                       : 768 kb/s
Channel(s)                     : 6 channels
Channel positions              : Front: L C R, Side: L R, LFE
Sampling rate                  : 48.0 kHz
Frame rate                     : 93.750 FPS (512 SPF)
Bit depth                      : 24 bits
Compression mode               : Lossy
Stream size                    : 605 MiB (16%)
Default                        : No
Forced                         : No

Audio #2
ID                             : 3
Format                         : AAC
Format/Info                    : Advanced Audio Codec
Format profile                 : LC
Codec ID                       : A_AAC
Duration                       : 1 h 50 min
Bit rate                       : 384 kb/s
Channel(s)                     : 6 channels
Channel positions              : Front: L C R, Side: L R, LFE
Sampling rate                  : 48.0 kHz
Frame rate                     : 46.875 FPS (1024 SPF)
Compression mode               : Lossy
Delay relative to video        : 9 ms
Stream size                    : 302 MiB (8%)
Language                       : English
Default                        : Yes
Forced                         : No

Text #1
ID                             : 4
Format                         : UTF-8
Codec ID                       : S_TEXT/UTF8
Codec ID/Info                  : UTF-8 Plain Text
Duration                       : 1 h 36 min
Bit rate                       : 41 b/s
Count of elements              : 1081
Stream size                    : 29.4 KiB (0%)
Language                       : English
Default                        : Yes
Forced                         : No

Text #2
ID                             : 5
Format                         : PGS
Muxing mode                    : zlib
Codec ID                       : S_HDMV/PGS
Codec ID/Info                  : Picture based subtitle format used on BDs/HD-DVDs
Duration                       : 1 h 49 min
Bit rate                       : 19.7 kb/s
Count of elements              : 2160
Stream size                    : 15.4 MiB (0%)
Default                        : No
Forced                         : No

Menu
00:00:00.000                   : en:00:00:00.000
00:08:18.707                   : en:00:08:18.707
00:13:18.923                   : en:00:13:18.923
00:19:31.462                   : en:00:19:31.462
00:24:40.145                   : en:00:24:40.145
00:28:54.107                   : en:00:28:54.107
00:35:41.389                   : en:00:35:41.389
00:39:36.040                   : en:00:39:36.040
00:47:00.067                   : en:00:47:00.067
00:50:57.638                   : en:00:50:57.638
00:56:49.740                   : en:00:56:49.740
01:00:43.849                   : en:01:00:43.849
01:08:58.009                   : en:01:08:58.009
01:16:03.851                   : en:01:16:03.851
01:19:38.440                   : en:01:19:38.440
01:23:16.408                   : en:01:23:16.408
01:26:26.848                   : en:01:26:26.848
01:33:34.943                   : en:01:33:34.943
01:37:02.984                   : en:01:37:02.984
01:39:47.982                   : en:01:39:47.982

Category:Movies > 1080P Bluray
Lang:Hindi
Total Size:3.58 GB
Info Hash:de25188128cbdb18fda78dcf26605874adc5ff6c
Added By:iparthiv
Date Added:18-09-2017 06:52:39
Views:440
Hits:158

Download Torrent

Ratings:Not Yet Rated (Log in to rate it)

  


Tracker:
udp://tracker.coppersurfer.tk:6969/announce

This Torrent also has backup trackers
URLSeedersLeechersCompleted
http://tracker.opentrackr.org/announce000
http://tracker.acg.gg:1578/announce000
http://95.213.191.124:2710/announce000
http://asnet.pw:2710/announce000


File List: 


Comments

No comments still posted

Powered by 10 Hamsters v2-svn -|- Page Generated In 0.511373 secs.
-|- RSS FEED
Theme By: Nikkbu