[Login] or [Signup]
Login
Username:
Password:
[Signup]
[Recover Account]


Poll


You must be logged in to view polls



Torrent Details For "Maacher Jhol (2017) Bengali Movie - 1CD - Pre DvDScrRip[Mp4 - AAC3(2Ch)]"

Maacher Jhol (2017) Bengali Movie - 1CD - Pre DvDScrRip[Mp4 - AAC3(2Ch)]

Download this torrent | Magnet Download
Health:
Seeds: 0
Leechers: 12
Completed: 217 
Last Checked: 27-12-2017 22:44:37
External Torrent
Update Stats
Download Magnet


Poster


iMDB
Imdb Picture Title: Maacher Jhol
Year: 2017
Runtime: 108 minutes
Votes: 26
Rating: 7.5/10
Language: Bengali, French
Country: India, France
All Genres: Drama
Plot Outline: Maacher Jhol is a heartwarming tale of a world renowned master-chef returning to his roots through a bowl of fish curry, the quintessential Bengali delicacy.
Director: Pratim D. Gupta
Writing By: Pratim D. Gupta,
Produced By: Joy Ganguly,
Music: Anupam Roy
Cast:
Kaya Blocksage as Simone
Ritwick Chakraborty as Chef Dev D
Paoli Dam as Sreela
Joy Ganguly as Magazine Customer
Sauraseni Maitra as Maggi
Sanjoy Nag as Doctor
Mamata Shankar as Maa


Watch-Free-HD     Download

Details
Name:Maacher Jhol (2017) Bengali Movie - 1CD - Pre DvDScrRip[Mp4 - AAC3(2Ch)]
Description:
Maacher Jhol (2017) Bengali Movie - 1CD -
Pre DvDScrRip[Mp4 - AAC3(2Ch)]
 





General
Format                                   : MPEG-4
Format profile                           : Base Media / Version 2
Codec ID                                 : mp4
File size                                : 700 MiB
Duration                                 : 1 h 51 min

Video
ID                                       : 2
Format                                   : AVC
Format/Info                              : Advanced Video Codec
Format profile                           : [email protected]
Format settings                          : CABAC / 3 Ref Frames
Format settings, CABAC                   : Yes
Format settings, RefFrames               : 3 frames
Codec ID                                 : avc1
Codec ID/Info                            : Advanced Video Coding
Duration                                 : 1 h 51 min
Bit rate mode                            : Constant
Bit rate                                 : 747 kb/s
Nominal bit rate                         : 813 kb/s / 813 kb/s
Width                                    : 720 pixels
Height                                   : 576 pixels
Display aspect ratio                     : 16:9
Frame rate mode                          : Constant
Frame rate                               : 25.000 FPS
Standard                                 : NTSC
Color space                              : YUV
Chroma subsampling                       : 4:2:0
Bit depth                                : 8 bits
Scan type                                : Progressive
Bits/(Pixel*Frame)                       : 0.072
Stream size                              : 595 MiB (85%)

Audio
ID                                       : 1
Format                                   : AAC
Format/Info                              : Advanced Audio Codec
Format profile                           : LC
Codec ID                                 : mp4a-40-2
Duration                                 : 1 h 51 min
Bit rate mode                            : Variable
Bit rate                                 : 128 kb/s
Maximum bit rate                         : 576 kb/s
Channel(s)                               : 2 channels
Channel positions                        : Front: L R
Sampling rate                            : 48.0 kHz
Stream size                              : 102 MiB (15%)


Thumbnail



Category:Movies > Bengali
Lang:Bengali  Bengali
Total Size:699.83 MB
Info Hash:9b241e2e1087cbb847692db7325abc5ef8f4137b
Added By:Pherarim
Date Added:18-09-2017 01:59:38
Views:559
Hits:194

Download Torrent

Ratings:Not Yet Rated (Log in to rate it)


Tracker:
udp://9.rarbg.me:2710/announce


File List: 


Comments

No comments still posted

Powered by 10 Hamsters v2-svn -|- Page Generated In 0.469813 secs.
-|- RSS FEED
Theme By: Nikkbu