[Login] or [Signup]
Login
Username:
Password:
[Signup]
[Recover Account]


Poll


You must be logged in to view polls



Torrent Details For " Nayikar Mato (2017) Zee Bangla Cinema - 2CD - HDTV Rip[Mp4 - AAC3(5.1Ch)]"

Nayikar Mato (2017) Zee Bangla Cinema - 2CD - HDTV Rip[Mp4 - AAC3(5.1Ch)]

Download this torrent | Magnet Download
Health:
Seeds: 0
Leechers: 11
Completed:
Last Checked: 19-09-2017 23:50:19
External Torrent
Update Stats
Download Magnet


Poster


Watch-Free-HD     Download

Details
Name: Nayikar Mato (2017) Zee Bangla Cinema - 2CD - HDTV Rip[Mp4 - AAC3(5.1Ch)]
Description:
 Nayikar Mato (2017) Zee Bangla Cinema -
2CD - HDTV Rip[Mp4 - AAC3(5.1Ch)].
 





General
Format                                   : MPEG-4
Format profile                           : Base Media
Codec ID                                 : isom (isom)
File size                                : 1.40 GiB
Duration                                 : 2 h 22 min

Video
ID                                       : 1
Format                                   : AVC
Format/Info                              : Advanced Video Codec
Format profile                           : [email protected]
Format settings, CABAC                   : Yes
Format settings, RefFrames               : 4 frames
Codec ID                                 : avc1
Codec ID/Info                            : Advanced Video Coding
Duration                                 : 2 h 22 min
Bit rate                                 : 1 283 kb/s
Maximum bit rate                         : 6 316 kb/s
Width                                    : 720 pixels
Height                                   : 304 pixels
Display aspect ratio                     : 2.35:1
Frame rate mode                          : Constant
Frame rate                               : 25.000 FPS
Color space                              : YUV
Chroma subsampling                       : 4:2:0
Bit depth                                : 8 bits
Scan type                                : Progressive
Bits/(Pixel*Frame)                       : 0.234
Stream size                              : 1.28 GiB (91%)

Audio
ID                                       : 2
Format                                   : AAC
Format/Info                              : Advanced Audio Codec
Format profile                           : HE-AAC / LC
Codec ID                                 : 40
Duration                                 : 2 h 22 min
Bit rate mode                            : Variable
Bit rate                                 : 128 kb/s
Maximum bit rate                         : 138 kb/s
Channel(s)                               : 6 channels
Channel positions                        : Front: L C R, Side: L R, LFE
Sampling rate                            : 48.0 kHz
Stream size                              : 130 MiB (9%)

Thumbnail




Category:Movies > Bengali
Lang:Bengali  Bengali
Total Size:1.41 GB
Info Hash:d5ad9fd5cd12101e377a86e9c78e3304b0731f74
Added By:Pherarim
Date Added:28-08-2017 16:36:28
Views:433
Hits:93

Download Torrent

Ratings:Not Yet Rated (Log in to rate it)


Tracker:
udp://9.rarbg.me:2710/announce


File List: 


Comments

No comments still posted

Powered by 10 Hamsters v2-svn -|- Page Generated In 0.723170 secs.
-|- RSS FEED
Theme By: Nikkbu