[Login] or [Signup]
Login
Username:
Password:
[Signup]
[Recover Account]


Poll


You must be logged in to view polls



Torrent Details For " ESP - Ekti Rahassayo Galpo (Bengali Movie) - 1CD - HDTV Rip[x264 - AAC3(2Ch)]"

ESP - Ekti Rahassayo Galpo (Bengali Movie) - 1CD - HDTV Rip[x264 - AAC3(2Ch)]

Download this torrent | Magnet Download
Health:
Seeds: 0
Leechers: 15
Completed:
Last Checked: 21-09-2017 04:30:51
External Torrent
Update Stats
Download Magnet


Poster


iMDB
Imdb Picture Title: Ekti Rahasya Galpo
Year: 2013
Runtime: 90 minutes
Votes: 16
Rating: 5.1/10
Language: Bengali
Country: India
All Genres: Thriller
Plot Outline: How can I get this full movie
Director: Shekhar Das
Writing By: Shekhar Das,Shibasish Roy,
Music: Indraadip Dasgupta
Plot:

How can I get this full movie


Cast:
Rituparna Sengupta as
Raima Sen as
Saheb Chatterjee as
Kunal Padhy as
Debdut Ghosh as


Watch-Free-HD     Download

Details
Name: ESP - Ekti Rahassayo Galpo (Bengali Movie) - 1CD - HDTV Rip[x264 - AAC3(2Ch)]
Description:
  ESP - Ekti Rahassayo Galpo (Bengali Movie) -
1CD - HDTV Rip[x264 - AAC3(2Ch)]  
 




General
Format                                   : Matroska
Format version                           : Version 2
File size                                : 700 MiB
Duration                                 : 2 h 6 min

Video
ID                                       : 1
Format                                   : AVC
Format/Info                              : Advanced Video Codec
Format profile                           : [email protected]
Format settings, CABAC                   : Yes
Format settings, RefFrames               : 4 frames
Codec ID                                 : V_MPEG4/ISO/AVC
Duration                                 : 2 h 6 min
Bit rate                                 : 644 kb/s
Width                                    : 640 pixels
Height                                   : 272 pixels
Display aspect ratio                     : 2.35:1
Frame rate mode                          : Constant
Color space                              : YUV
Chroma subsampling                       : 4:2:0
Bit depth                                : 8 bits
Scan type                                : Progressive
Bits/(Pixel*Frame)                       : 0.123
Stream size                              : 582 MiB (83%)

Audio
ID                                       : 2
Format                                   : AAC
Format/Info                              : Advanced Audio Codec
Format profile                           : LC
Codec ID                                 : A_AAC
Duration                                 : 2 h 6 min
Bit rate                                 : 128 kb/s
Channel(s)                               : 2 channels
Channel positions                        : Front: L R
Sampling rate                            : 48.0 kHz
Stream size                              : 116 MiB (17%)

Thumbnail





Category:Movies > Bengali
Lang:Bengali  Bengali
Total Size:700.29 MB
Info Hash:2f74874347a03d70a680179b3d27ed8d36a53faf
Added By:Pherarim
Date Added:28-08-2017 16:19:51
Views:304
Hits:78

Download Torrent

Ratings:Not Yet Rated (Log in to rate it)


Tracker:
udp://9.rarbg.me:2710/announce


File List: 


Comments

No comments still posted

Powered by 10 Hamsters v2-svn -|- Page Generated In 0.539207 secs.
-|- RSS FEED
Theme By: Nikkbu